<?xml version="1.0" standalone="no"?>
<!DOCTYPE svg PUBLIC "-//W3C//DTD SVG 1.1//EN" "http://www.w3.org/Graphics/SVG/1.1/DTD/svg11.dtd">
<svg xmlns="http://www.w3.org/2000/svg">
<defs >
<font id="Comfortaa" horiz-adv-x="641" ><font-face
    font-family="Comfortaa"
    units-per-em="1000"
    panose-1="0 0 0 0 0 0 0 0 0 0"
    ascent="881"
    descent="-234"
    alphabetic="0" />
<glyph unicode=" " horiz-adv-x="293" />
<glyph unicode="!" horiz-adv-x="288" d="M119 185Q97 185 83 200T68 236V729Q68 751 82 766T119 781Q141 781 155 766T170 729V236Q170 215 155 200T119 185ZM119 0Q91 0 71 20T50 69Q50 98 70 118T119 139Q148 139 168 119T188 69Q188 40 168 20T119 0Z" />
<glyph unicode="&quot;" horiz-adv-x="273" d="M201 549Q184 549 172 561T160 590L150 730Q150 751 165 766T201 781Q222 781 237 766T252 730L243 590Q242 573 230 561T201 549ZM81 549Q64 549 52 561T39 590L30 729Q30 750 45 765T81 780Q101 780 116 765T131
729L122 590Q122 573 110 561T81 549Z" />
<glyph unicode="#" horiz-adv-x="717" d="M627 551Q648 551 661 541T671 508Q670 489 653 478T614 467H547L523 325H587Q610 325 621 314T633 285Q633 269 617 255T574 241H502L469 50Q465 28 452 14T415 0Q393 0 383 16T376 54L407 241H253L221 50Q217 29 203
15T167 0Q145 0 134 13T127 54L159 241H90Q69 241 57 251T45 279Q47 302 62 313T103 325H180L203 467H129Q109 467 96 476T83 504Q83 528 99 539T142 551H223L256 732Q261 755 274 768T310 782Q332 782 343 767T350 728L318 551H472L505 732Q509 753 523 767T559
782Q582 782 592 767T598 728L567 551H627ZM428 325L452 467H298L275 325H428Z" />
<glyph unicode="$" horiz-adv-x="636" d="M326 -10Q263 -10 207 7T108 57T47 136Q38 157 47 174T81 197Q98 201 114 192T138 164Q155 127 207 104T326 81Q368 81 404 96T464 139T487 209Q487 261 449 301T322 352Q246 360 190 389T103 465T72 571Q72 635 107 680T202
750T334 775Q395 775 439 759T516 712T571 642Q584 620 582 602T563 572Q546 560 526 566T495 592Q473 634 435 659T332 686Q263 687 217 658T171 570Q171 540 184 513T236 464T346 435Q456 424 521 367T587 212Q587 157 565 115T506 46T422 4T326 -10ZM332 -102Q319
-102 310 -93T301 -71V822Q301 836 310 844T332 853Q346 853 354 845T363 822V-71Q363 -84 355 -93T332 -102Z" />
<glyph unicode="%" horiz-adv-x="859" d="M167 0Q145 0 131 15T116 51Q116 72 128 85L654 761Q663 771 673 776T695 781Q717 781 732 766T747 730Q747 713 736 699L205 16Q190 0 167 0ZM227 382Q172 382 127 409T54 482T27 581Q27 635 54 680T126 753T227 781Q282
781 327 754T399 681T426 581Q426 527 399 482T327 410T227 382ZM227 484Q254 484 276 497T311 532T324 581Q324 608 311 630T275 665T227 679Q200 679 178 666T142 630T129 581Q129 555 142 533T177 497T227 484ZM633 0Q579 0 534 27T461 99T434 199Q434 254 461
299T533 371T633 398Q687 398 732 372T805 300T833 200Q833 144 806 99T733 27T633 0ZM633 102Q660 102 682 115T718 150T731 199Q731 226 718 248T683 283T633 296Q607 296 585 283T549 248T536 199Q536 173 549 151T584 115T633 102Z" />
<glyph unicode="&amp;" horiz-adv-x="731" d="M257 -14Q194 -14 146 9T72 76T45 181Q45 249 91 304T212 419L295 485Q348 527 363 559T379 625Q379 663 354 691T280 719Q236 719 209 693T182 632Q182 606 193 581T231 530L686 76Q702 60 704 46T690 16Q658 -16
626 16L166 475Q132 510 114 548T96 630Q96 678 120 716T186 777T280 799Q334 799 375 776T441 713T465 623Q465 584 452 552T410 490T337 423L258 360Q224 333 197 305T155 248T139 185Q139 129 170 101T257 72Q317 72 361 99T452 175L598 329Q613 345 626 349T655
338Q671 323 671 307T657 274L511 120Q459 61 398 24T257 -14Z" />
<glyph unicode="&apos;" horiz-adv-x="156" d="M81 549Q64 549 52 561T39 590L30 729Q30 750 45 765T81 780Q101 780 116 765T131 729L122 590Q122 573 110 561T81 549Z" />
<glyph unicode="(" horiz-adv-x="273" d="M196 -234Q180 -234 169 -227T148 -200Q92 -81 64 37T35 274Q35 393 63 511T148 745Q163 780 196 780Q218 780 232 765T247 727Q246 711 240 701Q135 488 135 273Q135 167 162 58T241 -157Q247 -169 247 -182Q247 -204
233 -219T196 -234Z" />
<glyph unicode=")" horiz-adv-x="273" d="M77 -234Q55 -234 41 -219T26 -182Q26 -169 32 -157Q83 -51 110 58T138 273Q138 488 33 701Q27 711 26 727Q26 749 40 764T77 780Q110 780 125 745Q182 629 210 511T238 274Q238 155 210 37T125 -200Q116 -219 105 -226T77 -234Z" />
<glyph unicode="*" horiz-adv-x="381" d="M125 480Q101 480 88 496T74 531Q74 544 80 554T98 573L138 602L88 604Q68 606 53 620T38 655Q38 678 54 692T89 706Q97 706 105 703T121 695L160 667L146 713Q145 718 144 721T143 729Q143 751 157 766T194 781Q216 781
230 766T245 729Q245 725 245 722T242 713L228 666L267 695Q281 706 299 706Q317 706 333 692T350 655Q350 636 337 621T301 604L250 602L291 573Q314 556 314 531Q314 510 300 495T256 480Q241 482 231 490T215 515L194 565L174 514Q169 497 156 489T125 480Z"
/>
<glyph unicode="+" horiz-adv-x="547" d="M274 110Q252 110 238 124T223 161V295H89Q67 295 53 310T38 347Q38 369 52 383T89 398H223V532Q223 553 238 568T274 583Q297 583 311 569T325 532V398H459Q480 398 495 383T511 347Q511 325 496 310T459 295H325V161Q325
139 311 125T274 110Z" />
<glyph unicode="," horiz-adv-x="245" d="M81 -173Q69 -173 63 -165T56 -147Q56 -127 67 -113T90 -81T102 -40Q102 -23 94 -12T76 8T58 30T50 60Q50 87 68 105T117 123Q155 123 174 97T195 27Q195 -5 185 -40T157 -105T119 -154T81 -173Z" />
<glyph unicode="-" horiz-adv-x="391" d="M87 223Q65 223 51 237T36 273Q36 296 50 310T87 324H310Q332 324 346 310T360 273Q360 251 346 237T310 223H87Z" />
<glyph unicode="." horiz-adv-x="238" d="M119 -16Q91 -16 71 4T50 53Q50 82 70 102T119 123Q148 123 168 103T188 53Q188 25 168 5T119 -16Z" />
<glyph unicode="/" horiz-adv-x="469" d="M88 -74Q60 -74 46 -52T42 -2L343 751Q349 765 362 773T390 781Q416 781 431 760T436 709L135 -44Q129 -60 116 -67T88 -74Z" />
<glyph unicode="0" horiz-adv-x="578" d="M289 0Q213 0 160 46T78 180T50 391Q50 514 78 601T159 735T289 782Q365 782 418 735T500 600T528 391Q528 270 500 183T419 48T289 0ZM289 104Q335 104 365 141T410 244T425 391Q425 473 410 538T365 641T289 679Q243
679 213 642T168 539T153 391Q153 308 168 243T213 141T289 104Z" />
<glyph unicode="1" horiz-adv-x="393" d="M241 0Q221 0 206 15T191 51V661L118 630Q101 623 86 623Q64 623 50 637T35 673Q35 689 43 702T68 721L224 777Q229 779 234 780T243 781Q266 781 279 767T293 729V51Q293 30 278 15T241 0Z" />
<glyph unicode="2" horiz-adv-x="588" d="M116 0Q94 0 80 15T65 51Q65 73 79 87L363 419Q393 454 409 485T426 544Q426 588 411 620T368 669T301 687Q263 687 233 668T185 616T167 544Q167 524 153 509T116 494Q95 494 80 509T65 544Q65 612 96 665T180 750T301
781Q369 781 419 752T496 670T524 544Q524 512 511 479T477 416T435 362L206 102H486Q508 102 523 87T538 51Q538 30 523 15T486 0H116Z" />
<glyph unicode="3" horiz-adv-x="599" d="M312 0Q237 0 179 31T88 117T55 240Q55 263 68 277T101 292Q121 292 134 278T147 240Q147 199 168 165T225 110T306 89Q372 89 412 125T453 228Q453 270 435 303T386 357T316 377Q294 377 280 392T265 429Q265 451 279
465T316 480Q344 480 370 494T413 533T430 589Q430 633 398 663T316 693Q278 693 247 678T197 638T178 582Q178 559 165 544T132 528Q113 528 100 542T86 579Q86 637 116 683T198 755T314 782Q373 782 420 757T495 688T523 589Q523 550 506 520T461 469T404 433Q457
415 490 385T538 314T554 227Q554 162 521 111T433 30T312 0Z" />
<glyph unicode="4" horiz-adv-x="653" d="M452 0Q432 0 418 15T404 51V177H71Q48 177 35 191T21 223T30 257L413 759Q421 769 431 775T455 781Q476 781 489 766T502 729V269H562Q583 269 598 259T613 223Q613 204 598 191T562 177H502V51Q502 30 488 15T452 0ZM131
241L104 269H404V681L435 641L131 241Z" />
<glyph unicode="5" horiz-adv-x="629" d="M319 0Q247 0 190 33T99 125T65 255Q65 277 79 291T115 306Q137 306 152 292T167 255Q167 212 187 177T241 122T319 102Q363 102 397 122T452 177T472 255Q472 299 452 333T398 388T319 408H152Q130 408 116 422T102 459V729Q102
751 116 766T152 781H486Q507 781 522 766T537 729Q537 709 523 694T486 679H203V510H319Q392 510 449 477T540 386T574 255Q574 183 541 125T450 34T319 0Z" />
<glyph unicode="6" horiz-adv-x="581" d="M301 0Q232 0 179 30T95 114T65 237Q65 307 95 360T178 444T301 475Q370 475 423 445T506 361T536 237Q536 168 506 115T423 31T301 0ZM300 90Q341 90 372 108T422 160T440 237Q440 281 422 314T373 366T300 385Q259 385
228 366T179 314T161 237Q161 194 178 161T227 109T300 90ZM98 365L330 752Q348 780 376 780Q397 780 411 768T428 738T421 702L279 466L98 365Z" />
<glyph unicode="7" horiz-adv-x="547" d="M143 0Q123 0 108 15T93 51Q93 59 95 66T102 83L389 679H85Q63 679 49 693T34 730Q34 752 48 766T85 781H466Q487 781 502 766T517 730Q517 723 515 717T510 703L190 28Q174 0 143 0Z" />
<glyph unicode="8" horiz-adv-x="581" d="M291 1Q225 1 173 32T90 118T60 241Q60 307 90 359T172 442T291 472Q357 472 409 442T491 360T521 241Q521 173 491 119T408 33T291 1ZM291 93Q328 93 357 113T404 166T421 241Q422 281 405 312T359 362T291 381Q254 381
224 363T177 313T160 241Q160 200 176 167T223 113T291 93ZM291 399Q234 399 190 424T119 491T93 588Q93 645 119 689T189 760T291 787Q348 788 392 762T463 691T488 588Q488 534 462 492T392 424T291 399ZM291 482Q319 482 341 497T376 536T389 591Q390 621 377
644T342 680T291 694Q249 694 221 665T192 591Q191 546 219 514T291 482Z" />
<glyph unicode="9" horiz-adv-x="581" d="M280 782Q350 782 403 752T486 668T516 545Q516 476 486 422T403 338T280 307Q212 307 159 337T75 422T45 545Q45 614 75 667T158 751T280 782ZM281 692Q240 692 209 674T159 622T141 545Q141 502 159 469T208 416T281
397Q322 397 353 416T402 468T420 545Q420 589 403 622T354 673T281 692ZM483 417L251 30Q233 2 205 2Q185 2 171 14T153 44T160 80L302 316L483 417Z" />
<glyph unicode=":" horiz-adv-x="195" d="M348 408Q320 408 300 428T279 478Q279 506 299 526T348 547Q377 547 397 527T417 477Q417 449 397 429T348 408ZM359 -16Q331 -16 311 4T290 53Q290 82 310 102T359 123Q388 123 408 103T428 53Q428 25 408 5T359 -16Z" />
<glyph unicode=";" horiz-adv-x="195" d="M81 -173Q69 -173 63 -165T56 -147Q56 -127 67 -113T90 -81T102 -40Q102 -23 94 -12T76 8T58 30T50 60Q50 87 68 105T117 123Q155 123 174 97T195 27Q195 -5 185 -40T157 -105T119 -154T81 -173ZM98 408Q70 408 50 428T29
478Q29 506 49 526T98 547Q127 547 147 527T167 477Q167 449 147 429T98 408Z" />
<glyph unicode="&lt;" horiz-adv-x="547" d="M434 81L65 302Q38 319 38 348Q38 374 65 393L434 615Q461 629 486 616T511 573Q511 543 486 528L149 328V371L486 169Q511 153 511 125Q511 105 499 92T468 75T434 81Z" />
<glyph unicode="=" horiz-adv-x="508" d="M88 408Q66 408 52 422T38 459Q38 481 52 495T88 510H422Q443 510 458 495T473 459Q473 437 458 423T422 408H88ZM88 185Q66 185 52 199T38 236Q38 259 52 273T88 287H422Q443 287 458 272T473 236Q473 215 458 200T422 185H88Z" />
<glyph unicode="&gt;" horiz-adv-x="547" d="M115 81Q99 71 81 74T51 91T38 125Q38 153 63 169L400 371V328L63 528Q38 543 38 573Q38 602 63 615T115 615L484 393Q511 374 511 348Q511 319 484 302L115 81Z" />
<glyph unicode="?" horiz-adv-x="547" d="M274 185Q252 185 238 199T223 236Q223 275 243 321T305 404Q333 428 356 451T394 505T409 580Q409 612 394 640T352 685T284 703Q235 703 203 685T156 635T140 560Q140 538 126 524T89 509Q67 509 53 523T38 560Q38 630
68 683T154 766T284 797Q349 797 399 770T479 694T509 580Q509 524 491 483T442 410T371 345Q345 324 335 291T325 236Q325 214 311 200T274 185ZM274 0Q246 0 226 20T205 69Q205 98 225 118T274 139Q303 139 323 119T344 69Q344 41 324 21T274 0Z" />
<glyph unicode="@" horiz-adv-x="1094" d="M547 -234Q436 -234 343 -197T182 -92T77 69T40 273Q40 384 77 477T182 638T343 743T547 780Q658 780 751 743T912 638T1017 477T1054 273Q1054 180 1028 109T957 -4T851 -45Q796 -45 761 -16T725 66V111Q706 77 676
50T609 8T537 -7Q458 -7 398 29T303 128T268 273Q268 355 304 418T403 517T547 553Q629 553 692 517T791 418T827 273V113Q827 88 835 74T861 60Q885 60 905 87T938 162T950 273Q950 362 921 435T837 563T710 646T547 676Q459 676 385 647T257 563T174 436T144
273Q144 185 173 111T257 -17T385 -100T547 -130Q587 -130 633 -121T713 -96Q747 -79 768 -92T790 -142Q790 -169 759 -189T673 -222T547 -234ZM547 98Q599 98 638 120T699 182T722 273Q722 325 700 364T638 425T547 448Q495 448 456 426T395 364T372 273Q372 222
394 183T456 121T547 98Z" />
<glyph unicode="A" horiz-adv-x="703" d="M69 0Q41 0 26 24T23 75L304 746Q319 781 353 781Q389 781 402 746L684 73Q695 45 681 23T637 0Q622 0 609 8T589 32L341 648H369L117 32Q110 16 97 8T69 0ZM122 172L162 258H554L594 172H122Z" />
<glyph unicode="B" horiz-adv-x="723" d="M152 0Q130 0 115 15T100 52V729Q100 752 115 766T152 781H391Q459 781 510 755T591 681T621 573Q621 524 595 485T522 422Q588 406 628 359T668 236Q668 167 636 114T545 31T412 0H152ZM204 96H412Q458 96 493 112T548
159T568 236Q568 279 548 307T493 349T412 364H204V96ZM204 460H391Q448 460 484 488T521 573Q521 630 485 657T391 685H204V460Z" />
<glyph unicode="C" horiz-adv-x="777" d="M450 -10Q369 -10 299 20T176 105T94 233T64 391Q64 475 93 547T175 674T298 760T450 791Q527 791 582 771T694 705Q702 699 706 693T712 680T714 664Q714 645 701 633T668 619T631 631Q594 663 555 680T450 697Q391 697
339 673T248 607T186 510T164 391Q164 327 186 272T247 174T339 109T450 85Q501 85 546 102T634 151Q652 164 669 163T699 149T711 114Q711 104 707 95T695 77Q641 34 580 12T450 -10Z" />
<glyph unicode="D" horiz-adv-x="783" d="M152 0Q130 0 115 15T100 52V729Q100 752 115 766T152 781H333Q419 781 489 753T612 672T692 548T720 391Q720 305 692 234T612 110T490 29T333 0H152ZM204 92H333Q417 92 481 130T583 236T620 391Q620 479 583 546T482
651T333 689H204V92Z" />
<glyph unicode="E" horiz-adv-x="700" d="M152 0Q130 0 115 15T100 52V729Q100 752 115 766T152 781H604Q627 781 641 768T655 732Q655 711 641 698T604 685H204V442H491Q514 442 528 429T542 394Q542 373 528 360T491 346H204V96H604Q627 96 641 83T655 49Q655
27 641 14T604 0H152Z" />
<glyph unicode="F" horiz-adv-x="625" d="M89 0Q67 0 52 15T37 52V729Q37 752 52 766T89 781H541Q564 781 578 768T592 732Q592 711 578 698T541 685H141V442H428Q451 442 465 429T479 394Q479 373 465 360T428 346H141V52Q141 30 126 15T89 0Z" />
<glyph unicode="G" horiz-adv-x="777" d="M450 -10Q369 -10 299 20T176 105T94 233T64 391Q64 475 93 547T175 674T298 760T450 791Q527 791 582 771T694 705Q702 699 706 693T712 680T714 664Q714 645 701 632T668 618T631 631Q594 663 555 680T450 697Q391 697
339 673T248 607T186 510T164 391Q164 327 186 272T247 174T339 109T450 85Q501 85 546 102T634 151Q652 164 669 163T699 149T711 114Q711 104 708 95T695 77Q642 33 580 12T450 -10ZM711 114L611 134V313H473Q451 313 436 326T421 359Q421 379 436 392T473 405H660Q683
405 697 391T711 353V114Z" />
<glyph unicode="H" horiz-adv-x="871" d="M152 0Q130 0 115 15T100 52V729Q100 752 115 766T152 781Q175 781 189 767T204 729V442H668V729Q668 752 683 766T720 781Q743 781 757 767T771 729V52Q771 30 757 15T720 0Q698 0 683 15T668 52V350H204V52Q204 30 190
15T152 0Z" />
<glyph unicode="I" horiz-adv-x="304" d="M152 0Q130 0 115 15T100 52V729Q100 752 115 766T152 781Q175 781 189 767T204 729V52Q204 30 190 15T152 0Z" />
<glyph unicode="J" horiz-adv-x="626" d="M285 -10Q215 -10 161 20T76 105T45 230Q45 253 60 267T97 282Q120 282 134 268T149 230Q149 187 166 154T214 103T285 84Q325 84 356 102T404 154T422 230V729Q422 752 436 766T473 781Q496 781 511 767T526 729V230Q526
160 495 106T410 21T285 -10Z" />
<glyph unicode="K" horiz-adv-x="667" d="M152 0Q131 0 116 15T100 52V729Q100 751 115 766T152 781Q174 781 189 766T204 729V429L535 760Q547 772 557 776T578 781Q603 781 614 766T622 731T603 693L348 437L608 83Q620 66 618 47T604 14T572 0Q544 0 529 22L276
365L204 293V52Q204 30 189 15T152 0Z" />
<glyph unicode="L" horiz-adv-x="642" d="M151 0Q129 0 115 15T100 52V729Q100 751 115 766T151 781Q173 781 188 766T203 729V104H565Q587 104 602 89T617 52Q617 30 602 15T565 0H151Z" />
<glyph unicode="M" horiz-adv-x="982" d="M152 0Q130 0 115 15T100 52V729Q100 752 115 766T152 781Q182 781 198 753L511 126H479L784 753Q800 781 830 781Q852 781 867 767T882 729V52Q882 30 867 15T830 0Q808 0 793 15T778 52V585L798 590L536 56Q519 30 491
30Q458 30 443 61L184 580L204 585V52Q204 30 189 15T152 0Z" />
<glyph unicode="N" horiz-adv-x="830" d="M151 0Q129 0 115 15T100 52V729Q100 752 114 766T151 781Q175 781 191 762L627 182V729Q627 752 642 766T679 781Q702 781 716 767T730 729V52Q730 30 716 15T679 0Q669 0 658 4T639 18L203 598V52Q203 30 189 15T151 0Z" />
<glyph unicode="O" horiz-adv-x="921" d="M461 -10Q373 -10 300 19T175 102T93 229T64 391Q64 479 93 552T174 678T300 761T461 791Q549 791 621 762T747 679T829 552T858 391Q858 303 829 230T747 103T622 20T461 -10ZM461 84Q526 84 580 107T675 172T736 270T758
391Q758 456 737 512T675 609T581 674T461 697Q396 697 342 674T248 610T186 512T164 391Q164 326 186 270T247 173T341 108T461 84Z" />
<glyph unicode="P" horiz-adv-x="623" d="M152 0Q130 0 115 15T100 52V729Q100 752 115 766T152 781H352Q427 781 485 748T575 657T608 522Q608 449 576 392T485 303T352 271H204V52Q204 30 190 15T152 0ZM204 367H352Q398 367 433 387T488 442T508 522Q508 570
488 606T433 664T352 685H204V367Z" />
<glyph unicode="Q" horiz-adv-x="921" d="M734 16L525 225Q509 241 509 260T525 296Q541 312 560 312T596 296L805 86Q820 70 820 51T805 16Q789 0 770 0T734 16ZM461 -10Q373 -10 300 19T175 102T93 229T64 391Q64 479 93 552T174 678T300 761T461 791Q549 791
621 762T747 679T829 552T858 391Q858 303 829 230T747 103T622 20T461 -10ZM461 84Q526 84 580 107T675 172T736 270T758 391Q758 456 737 512T675 609T581 674T461 697Q396 697 342 674T248 610T186 512T164 391Q164 326 186 270T247 173T341 108T461 84Z" />
<glyph unicode="R" horiz-adv-x="632" d="M152 0Q130 0 115 15T100 52V729Q100 752 115 766T152 781H332Q407 781 465 750T555 663T588 535Q588 467 556 414T465 331T332 301H204V52Q204 30 190 15T152 0ZM567 0Q553 0 542 6T522 25L342 315L443 344L607 80Q625
51 612 26T567 0ZM204 397H332Q378 397 413 414T468 463T488 535Q488 579 468 613T413 666T332 685H204V397Z" />
<glyph unicode="S" horiz-adv-x="688" d="M348 -10Q284 -10 226 10T125 66T62 149Q52 170 62 188T98 211Q116 215 133 206T160 177Q172 152 199 131T266 97T348 84Q396 84 436 99T502 142T527 213Q527 266 486 308T349 360Q225 372 154 433T83 584Q83 650 120
696T220 766T362 790Q423 790 468 773T548 726T607 655Q621 633 619 614T599 583Q580 571 558 578T525 604Q509 633 486 653T432 684T359 696Q285 697 235 669T185 581Q185 551 200 524T257 476T377 448Q496 436 562 376T629 216Q629 159 606 117T543 47T453 4T348
-10Z" />
<glyph unicode="T" horiz-adv-x="661" d="M331 0Q309 0 294 15T279 52V781H383V52Q383 30 368 15T331 0ZM63 685Q42 685 29 698T15 733Q15 754 28 767T63 781H598Q619 781 632 768T646 733Q646 712 633 699T598 685H63Z" />
<glyph unicode="U" horiz-adv-x="845" d="M427 -16Q331 -16 257 19T142 118T100 262V729Q100 752 115 766T152 781Q175 781 189 767T204 729V262Q204 208 232 167T311 102T427 78Q490 78 538 101T614 166T642 262V729Q642 752 657 766T694 781Q717 781 731 767T745
729V262Q745 181 705 118T592 20T427 -16Z" />
<glyph unicode="V" horiz-adv-x="737" d="M368 0Q336 0 321 33L28 703Q14 737 25 759T67 781Q102 781 115 750L372 133H361L623 750Q631 768 641 774T670 781Q700 781 711 760T711 712L415 33Q408 17 397 9T368 0Z" />
<glyph unicode="W" horiz-adv-x="938" d="M266 0Q248 0 234 11T214 41L13 709Q3 742 14 761T52 781Q69 781 83 772T103 742L278 132H256L418 736Q422 751 436 761T468 771Q484 771 498 763T517 737L680 132H660L836 747Q846 781 887 781Q915 781 923 760T923 709L722
42Q715 23 702 12T670 0Q651 0 638 12T618 41L457 663H481L318 42Q311 23 298 12T266 0Z" />
<glyph unicode="X" horiz-adv-x="716" d="M97 0Q74 0 62 14T50 48T62 84L314 420L359 460L589 766Q603 781 626 781Q647 781 659 768T672 736T661 699L418 375L375 337L133 15Q118 0 97 0ZM620 0Q607 0 598 4T580 19L347 342L310 373L75 699Q63 715 65 734T79
767T113 781Q139 781 150 766L372 458L410 427L657 84Q669 68 668 48T655 14T620 0Z" />
<glyph unicode="Y" horiz-adv-x="670" d="M334 0Q313 0 298 15T283 52V285L16 700Q3 721 6 739T23 769T57 781Q74 781 84 774T103 752L357 349H317L575 756Q583 768 594 774T621 781Q639 781 651 769T665 738T655 700L386 285V52Q386 30 371 15T334 0Z" />
<glyph unicode="Z" horiz-adv-x="742" d="M106 0Q83 0 70 15T55 49T65 84L554 689H116Q91 689 79 701T67 733Q66 754 81 767T118 781H634Q657 781 671 767T687 734T676 699L185 92H634Q657 92 671 79T685 47Q685 25 671 13T634 0H106Z" />
<glyph unicode="[" horiz-adv-x="321" d="M117 -234Q95 -234 80 -219T65 -182V729Q65 752 80 767T117 782H269Q292 782 306 767T321 729Q321 707 307 693T269 678H169V-130H269Q292 -130 306 -144T321 -182Q321 -204 307 -219T269 -234H117Z" />
<glyph unicode="\" horiz-adv-x="469" d="M384 -79Q371 -79 357 -71T336 -48L33 708Q29 717 29 729Q29 752 44 767T81 782Q98 782 110 774T129 751L431 -6Q436 -16 436 -27Q436 -49 421 -64T384 -79Z" />
<glyph unicode="]" horiz-adv-x="321" d="M52 -234Q30 -234 15 -219T0 -182Q0 -159 15 -145T52 -130H152V678H52Q30 678 15 692T0 729Q0 752 15 767T52 782H204Q227 782 241 767T256 729V-182Q256 -204 242 -219T204 -234H52Z" />
<glyph unicode="^" horiz-adv-x="469" d="M88 456Q66 456 52 470T37 507Q37 515 39 522T44 534L194 759Q210 781 236 781Q249 781 260 776T278 759L428 534Q436 521 436 507Q436 486 421 471T385 456Q360 456 343 476L236 637L129 476Q114 456 88 456Z" />
<glyph unicode="_" horiz-adv-x="469" d="M8 -102Q-14 -102 -28 -87T-43 -51Q-43 -29 -29 -15T8 0H477Q497 0 512 -14T527 -51Q527 -72 512 -87T477 -102H8Z" />
<glyph unicode="`" horiz-adv-x="273" d="M181 583Q159 583 146 597L48 694Q35 707 35 729Q35 751 49 766T85 781Q106 781 122 766L219 668Q232 655 232 634Q232 612 218 598T181 583Z" />
<glyph unicode="a" horiz-adv-x="675" d="M318 -4Q245 -4 187 32T96 131T62 273Q62 352 98 415T197 514T338 551Q416 551 478 515T576 415T613 273H574Q574 194 541 132T449 33T318 -4ZM338 86Q389 86 429 110T492 177T515 273Q515 327 492 369T429 436T338 461Q288
461 248 437T184 370T160 273Q160 220 183 178T247 111T338 86ZM562 -1Q540 -1 526 13T511 50V203L530 309L613 273V50Q613 28 599 14T562 -1Z" />
<glyph unicode="b" horiz-adv-x="703" d="M365 -4Q287 -4 225 32T127 132T90 274V730Q90 753 104 767T141 781Q164 781 178 767T192 730V460Q227 502 276 526T385 551Q458 551 516 515T607 416T641 274Q641 195 605 132T506 33T365 -4ZM365 86Q416 86 456 110T519
178T543 274Q543 328 520 370T456 436T365 461Q315 461 275 437T211 370T188 274Q188 221 211 178T274 111T365 86Z" />
<glyph unicode="c" horiz-adv-x="601" d="M338 -4Q258 -4 196 32T98 131T62 273Q62 354 97 417T193 515T333 551Q392 551 441 529T529 461Q543 445 539 428T517 398Q503 388 486 391T455 409Q406 461 333 461Q282 461 243 438T182 372T160 273Q160 219 182 177T245
111T338 86Q373 86 399 94T448 121Q464 134 481 135T511 126Q528 112 530 95T518 63Q446 -4 338 -4Z" />
<glyph unicode="d" horiz-adv-x="703" d="M338 -4Q260 -4 198 32T99 132T62 274Q62 353 95 415T187 514T318 551Q377 551 427 527T511 460V730Q511 753 525 767T562 781Q585 781 599 767T613 730V274Q613 195 577 132T478 33T338 -4ZM338 86Q389 86 429 110T492
178T515 274Q515 328 492 370T429 436T338 461Q288 461 248 437T184 370T160 274Q160 221 183 178T247 111T338 86Z" />
<glyph unicode="e" horiz-adv-x="621" d="M347 -4Q264 -4 200 31T99 129T62 273Q62 355 96 417T192 515T332 551Q410 551 466 517T551 422T581 282Q581 263 568 251T535 238H132V318H532L491 290Q490 340 471 379T417 442T332 465Q275 465 235 440T173 372T152
273Q152 218 177 175T246 107T347 82Q378 82 410 93T463 120Q478 131 495 131T526 121Q543 106 544 88T528 57Q494 30 444 13T347 -4Z" />
<glyph unicode="f" horiz-adv-x="367" d="M149 0Q130 0 115 14T100 51V544Q100 616 128 669T208 751T326 781Q348 781 362 768T377 735Q377 716 363 703T326 689Q289 689 261 672T218 625T202 554V51Q202 28 188 14T149 0ZM57 441Q36 441 23 453T10 483Q10 503
23 515T57 527H304Q325 527 338 515T351 483Q351 465 338 453T304 441H57Z" />
<glyph unicode="g" horiz-adv-x="675" d="M318 -4Q243 -4 186 31T95 129T62 273Q62 355 97 417T195 515T338 551Q418 551 480 516T577 418T613 273H554Q554 192 524 130T440 32T318 -4ZM336 -227Q265 -227 203 -199T98 -117Q85 -100 88 -82T108 -53Q126 -41 145
-45T177 -65Q204 -99 245 -118T338 -137Q386 -137 426 -114T491 -46T515 64V206L548 294L613 273V57Q613 -22 578 -86T481 -189T336 -227ZM338 86Q390 86 430 110T492 176T515 273Q515 328 493 370T430 437T338 461Q286 461 246 437T183 371T160 273Q160 218 183
176T246 110T338 86Z" />
<glyph unicode="h" horiz-adv-x="683" d="M141 199Q119 199 105 213T90 250V730Q90 753 104 767T141 781Q164 781 178 767T192 730V250Q192 228 178 214T141 199ZM552 -1Q530 -1 516 13T501 50V296Q501 353 480 389T424 442T342 460Q300 460 266 443T212 398T192
332H129Q129 395 159 444T243 523T362 552Q431 552 485 523T571 436T603 296V50Q603 28 589 14T552 -1ZM141 -1Q119 -1 105 13T90 50V496Q90 519 104 533T141 547Q164 547 178 533T192 496V50Q192 28 178 14T141 -1Z" />
<glyph unicode="i" horiz-adv-x="302" d="M151 0Q129 0 115 14T100 51V496Q100 519 114 533T151 547Q174 547 188 533T202 496V51Q202 29 188 15T151 0ZM407 636Q380 636 361 655T341 702Q341 729 360 748T407 768Q434 768 453 749T473 702Q473 675 454 656T407 636Z" />
<glyph unicode="j" horiz-adv-x="287" d="M-50 -234Q-72 -234 -86 -220T-100 -183Q-100 -160 -86 -146T-50 -132Q-10 -132 20 -115T67 -67T85 2V496Q85 519 99 533T136 547Q159 547 173 533T187 496V2Q187 -67 157 -120T73 -203T-50 -234ZM392 636Q365 636 346
655T326 702Q326 729 345 748T392 768Q419 768 438 749T458 702Q458 675 439 656T392 636Z" />
<glyph unicode="k" horiz-adv-x="569" d="M186 200L124 268L431 542Q446 556 464 555T496 539Q510 524 509 506T493 474L186 200ZM139 0Q117 0 104 13T90 49V732Q90 754 103 767T139 781Q161 781 174 768T188 732V49Q188 27 175 14T139 0ZM496 5Q480 -8 461 -7T428
11L225 262L295 328L503 72Q516 56 515 38T496 5Z" />
<glyph unicode="l" horiz-adv-x="300" d="M220 0Q176 0 142 24T89 89T70 185V731Q70 753 84 767T120 781Q142 781 156 767T170 731V185Q170 148 184 124T220 100H245Q265 100 277 86T290 50Q290 28 271 14T222 0H220Z" />
<glyph unicode="m" horiz-adv-x="938" d="M808 -1Q786 -1 772 13T757 50V336Q757 399 726 429T645 460Q593 460 560 424T526 332H443Q443 397 471 446T549 524T665 552Q722 552 766 527T834 454T859 336V50Q859 28 845 14T808 -1ZM141 -1Q119 -1 105 13T90 50V495Q90
518 104 532T141 546Q164 546 178 532T192 495V50Q192 28 178 14T141 -1ZM475 -1Q453 -1 439 13T424 50V336Q424 399 393 429T312 460Q260 460 226 424T192 332H129Q129 397 155 446T227 524T332 552Q389 552 433 527T501 454T526 336V50Q526 28 512 14T475 -1Z"
/>
<glyph unicode="n" horiz-adv-x="682" d="M552 -1Q530 -1 516 13T501 50V296Q501 353 480 389T424 442T342 460Q300 460 266 443T212 398T192 332H129Q129 395 159 444T243 523T362 552Q431 552 485 523T571 436T603 296V50Q603 28 589 14T552 -1ZM141 -1Q119
-1 105 13T90 50V496Q90 519 104 533T141 547Q164 547 178 533T192 496V50Q192 28 178 14T141 -1Z" />
<glyph unicode="o" horiz-adv-x="675" d="M338 -4Q257 -4 195 31T98 129T62 273Q62 355 97 417T195 515T338 551Q418 551 480 516T577 418T613 273Q613 192 578 130T481 32T338 -4ZM338 86Q390 86 430 110T492 176T515 273Q515 328 493 370T430 437T338 461Q286
461 246 437T183 371T160 273Q160 218 183 176T246 110T338 86Z" />
<glyph unicode="p" horiz-adv-x="703" d="M141 -234Q119 -234 105 -220T90 -183V273Q91 352 127 415T225 514T365 551Q444 551 506 515T604 415T641 273Q641 194 608 132T516 33T385 -4Q326 -4 277 20T192 87V-183Q192 -205 178 -219T141 -234ZM365 86Q416 86
456 110T519 177T543 273Q543 327 520 369T456 436T365 461Q315 461 275 437T211 370T188 273Q188 220 211 178T274 111T365 86Z" />
<glyph unicode="q" horiz-adv-x="703" d="M563 -234Q540 -234 526 -220T511 -183V87Q477 45 427 21T318 -4Q245 -4 187 32T96 131T62 273Q62 352 98 415T197 514T338 551Q416 551 478 515T576 415T613 273V-183Q613 -205 599 -219T563 -234ZM338 86Q389 86 429
110T492 177T515 273Q515 327 492 369T429 436T338 461Q288 461 248 437T184 370T160 273Q160 220 183 178T247 111T338 86Z" />
<glyph unicode="r" horiz-adv-x="486" d="M139 342Q139 402 168 449T248 525T358 553Q418 553 447 534T470 487Q467 473 459 466T439 456T415 457Q351 470 300 459T220 418T190 342H139ZM140 0Q116 0 103 12T90 50V497Q90 521 103 534T140 547Q165 547 177 535T190
497V50Q190 26 178 13T140 0Z" />
<glyph unicode="s" horiz-adv-x="543" d="M289 -4Q219 -4 160 17T67 72Q52 88 54 108T74 142Q94 158 113 156T147 138Q164 119 201 103T285 86Q343 86 373 105T405 154Q406 184 377 206T269 242Q168 262 123 302T77 400Q77 451 107 484T184 534T282 551Q348 551
399 530T480 472Q494 456 493 439T476 409Q460 398 438 402T401 420Q376 444 347 453T280 462Q236 462 206 447T175 403Q175 385 184 371T222 345T304 322Q379 307 422 284T485 231T504 160Q504 114 480 77T408 18T289 -4Z" />
<glyph unicode="t" horiz-adv-x="401" d="M289 0Q239 0 199 25T136 95T113 194V671Q113 693 127 707T163 721Q185 721 199 707T213 671V194Q213 154 235 127T289 100H323Q341 100 353 86T366 50Q366 28 350 14T307 0H289ZM67 441Q46 441 33 453T20 483Q20 503
33 515T67 527H298Q319 527 332 515T345 483Q345 465 332 453T298 441H67Z" />
<glyph unicode="u" horiz-adv-x="682" d="M320 -5Q251 -5 197 24T111 111T79 251V497Q79 519 93 533T130 548Q152 548 166 534T181 497V251Q181 195 202 159T259 105T340 87Q383 87 416 104T470 150T490 215H553Q553 153 523 103T440 24T320 -5ZM541 0Q519 0 505
14T490 51V497Q490 520 504 534T541 548Q564 548 578 534T592 497V51Q592 29 578 15T541 0Z" />
<glyph unicode="v" horiz-adv-x="548" d="M275 1Q244 1 227 34L15 481Q7 498 13 514T39 540Q56 549 73 543T100 520L298 93H250L446 520Q455 537 473 543T511 540Q529 532 535 515T533 481L321 34Q306 1 275 1Z" />
<glyph unicode="w" horiz-adv-x="728" d="M216 0Q200 0 187 9T168 33L20 477Q12 508 20 527T58 547Q77 547 89 537T110 501L236 107H201L320 509Q325 526 337 536T370 547Q390 547 402 537T419 509L516 131H501L619 501Q633 547 671 547Q699 547 709 528T708 477L560
33Q556 19 543 10T513 0Q497 0 483 9T465 33L362 414H372L264 33Q260 19 247 10T216 0Z" />
<glyph unicode="x" horiz-adv-x="557" d="M474 0Q464 0 455 3T438 16L263 226L227 262L53 468Q40 484 39 502T49 534T82 547Q106 547 120 530L291 326L317 302L505 77Q520 59 520 42T507 12T474 0ZM92 0Q72 0 61 12T49 43T63 79L233 292L287 216L128 16Q113 0
92 0ZM339 257L270 316L431 530Q439 540 448 543T468 547Q490 547 501 534T512 501T497 464L339 257Z" />
<glyph unicode="y" horiz-adv-x="539" d="M188 -240Q178 -240 164 -234Q120 -214 140 -171L445 518Q465 560 508 542Q553 523 533 479L227 -209Q215 -240 188 -240ZM306 22Q287 14 271 20T244 46L15 481Q5 500 12 517T39 543Q58 551 75 545T101 519L320 84Q330
65 328 48T306 22Z" />
<glyph unicode="z" horiz-adv-x="540" d="M142 19L74 79L414 528L481 468L142 19ZM112 0Q65 0 65 47Q65 94 112 94H453Q500 94 500 47Q500 0 453 0H112ZM102 453Q55 453 55 500Q55 547 102 547H443Q490 547 490 500Q490 453 443 453H102Z" />
<glyph unicode="{" horiz-adv-x="391" d="M310 -234Q147 -234 147 -71V162Q147 223 87 223Q65 223 51 237T36 273Q36 296 50 310T87 324Q147 324 147 385V618Q147 781 310 781Q332 781 346 766T360 729Q360 707 346 693T310 679Q249 679 249 618V385Q249 350 241
322T217 273Q249 232 249 162V-71Q249 -132 310 -132Q332 -132 346 -146T360 -183Q360 -205 346 -219T310 -234Z" />
<glyph unicode="|" horiz-adv-x="391" d="M198 -234Q176 -234 162 -220T147 -183V730Q147 752 161 766T198 781Q221 781 235 767T249 730V-183Q249 -205 235 -219T198 -234Z" />
<glyph unicode="}" horiz-adv-x="391" d="M81 -234Q59 -234 45 -220T31 -183Q31 -160 45 -146T81 -132Q142 -132 142 -71V162Q142 232 174 273Q158 294 150 322T142 385V618Q142 679 81 679Q59 679 45 693T31 729Q31 751 45 766T81 781Q244 781 244 618V385Q244
324 304 324Q326 324 340 310T355 273Q355 251 341 237T304 223Q244 223 244 162V-71Q244 -234 81 -234Z" />
<glyph unicode="~" horiz-adv-x="469" d="M332 302Q298 302 273 313T230 333Q208 345 192 350T164 356Q150 356 139 351T116 329Q104 313 87 306T51 307Q37 314 34 333T42 368Q65 402 98 419T171 436Q203 436 227 426T269 406Q292 393 304 388T329 383Q342 383
352 388T369 400Q383 414 396 419T428 414Q443 405 444 385T433 349Q395 302 332 302Z" />
<glyph unicode="&#xa0;" horiz-adv-x="293" />
<glyph unicode="&#xa1;" horiz-adv-x="288" d="M169 363Q189 363 204 348T220 312V-181Q220 -203 206 -218T169 -233Q147 -233 133 -218T118 -181V312Q118 332 132 347T169 363ZM169 548Q197 548 217 528T238 479Q238 451 218 430T169 409Q141 409 121 430T100
479Q100 508 120 528T169 548Z" />
<glyph unicode="&#xa2;" horiz-adv-x="601" d="M186 -96Q171 -96 161 -84T157 -53L415 629Q423 650 444 650Q461 650 470 638T474 611L217 -74Q208 -96 186 -96ZM338 -4Q258 -4 196 32T98 131T62 273Q62 354 97 417T193 515T333 551Q392 551 441 529T529 461Q543
445 539 428T517 398Q503 388 486 391T455 409Q406 461 333 461Q282 461 243 438T182 372T160 273Q160 219 182 177T245 111T338 86Q373 86 399 94T448 121Q464 134 481 135T511 126Q528 112 530 95T518 63Q446 -4 338 -4Z" />
<glyph unicode="&#xa3;" horiz-adv-x="508" d="M127 0Q102 0 89 14T75 51Q75 64 79 72Q104 131 117 188T131 300H89Q67 300 53 315T38 353Q38 375 52 389T89 404H121Q106 442 96 469T81 522T75 578Q75 634 102 680T176 753T277 780Q336 780 384 758T466 690Q471
684 473 676T476 659Q476 637 462 622T424 607Q403 607 393 620Q366 646 343 664T281 682Q248 682 226 668T191 629T179 572Q179 548 185 521T202 465T227 404H353Q375 404 389 390T404 353Q404 331 390 316T353 300H234Q233 252 226 203T201 104H416Q423 117 428
129T441 152Q449 164 459 171T485 179Q507 179 522 164T537 127Q537 114 531 103L495 31Q487 15 475 8T448 0H127Z" />
<glyph unicode="&#xa4;" horiz-adv-x="532" d="M106 140Q80 140 63 157T45 201Q45 226 63 244L94 272Q73 313 73 360T93 448L63 479Q45 496 45 522Q45 548 62 565T106 583Q129 583 148 566L178 534Q222 557 268 556T352 535L384 565Q393 573 402 578T425 583Q451
583 469 566T487 522Q487 495 469 478L440 451Q460 413 460 364T440 276L470 244Q487 227 487 201Q487 175 470 158T427 140Q415 140 405 144T384 155L356 188Q313 168 269 168T181 186L150 158Q131 140 106 140ZM266 270Q291 270 311 282T344 315T357 361Q357
388 345 408T312 441T266 453Q241 453 221 441T188 407T175 361Q175 338 187 317T219 283T266 270Z" />
<glyph unicode="&#xa5;" horiz-adv-x="670" d="M174 285Q152 285 138 297T123 330Q123 351 137 363T174 375H496Q519 375 533 363T548 330Q548 309 534 297T496 285H174ZM174 145Q152 145 138 157T123 190Q123 211 137 223T174 235H496Q519 235 533 223T548 190Q548
169 534 157T496 145H174ZM334 0Q313 0 298 15T283 52V285L16 700Q3 721 6 739T23 769T57 781Q74 781 84 774T103 752L357 349H317L575 756Q583 768 594 774T621 781Q639 781 651 769T665 738T655 700L386 285V52Q386 30 371 15T334 0Z" />
<glyph unicode="&#xa6;" horiz-adv-x="234" d="M122 408Q100 408 86 422T71 459V792Q71 815 85 829T122 843Q144 843 158 829T173 792V459Q173 437 159 423T122 408ZM122 -234Q100 -234 86 -220T71 -183V151Q71 173 85 187T122 202Q144 202 158 188T173 151V-183Q173
-205 159 -219T122 -234Z" />
<glyph unicode="&#xa7;" horiz-adv-x="469" d="M241 -234Q185 -234 139 -206T65 -132T37 -29Q37 -7 52 8T90 23Q112 23 126 8T141 -29Q141 -56 155 -79T191 -115T241 -129Q268 -129 290 -116T327 -79T341 -29Q341 -3 327 20T291 56T241 70Q185 70 139 97T65 171T37
274Q37 317 54 354T104 426Q67 463 52 499T37 578Q37 634 64 680T138 754T241 782Q297 782 343 754T417 680T445 578Q445 556 431 541T393 525Q371 525 356 540T341 578Q341 605 327 628T291 664T241 678Q214 678 192 665T155 628T141 578Q141 550 154 528T190
492T241 478Q297 478 343 451T417 377T445 274Q445 231 429 193T377 122Q412 89 428 52T445 -29Q445 -85 417 -131T343 -206T241 -234ZM241 175Q268 175 290 188T327 223T341 274Q341 302 327 324T291 360T241 374Q214 374 192 361T155 325T141 274Q141 246 155
224T191 188T241 175Z" />
<glyph unicode="&#xa8;" horiz-adv-x="469" d="M125 614Q100 614 82 631T64 674Q64 698 82 716T125 734Q149 734 167 716T185 674Q185 649 167 632T125 614ZM347 614Q322 614 305 631T287 674Q287 698 304 716T347 734Q371 734 389 716T407 674Q407 649 389 632T347 614Z" />
<glyph unicode="&#xa9;" horiz-adv-x="859" d="M442 148Q374 148 321 179T238 266T207 393Q207 464 236 519T318 607T438 639Q538 639 605 559Q617 544 614 528T594 498Q581 489 565 492T537 508Q497 552 438 552Q396 552 364 532T315 476T297 393Q297 346 315
310T366 254T442 234Q497 234 531 263Q545 275 561 276T589 268Q605 254 606 237T595 207Q534 148 442 148ZM436 0Q355 0 284 29T159 112T75 237T45 391Q45 472 75 542T158 666T283 750T436 781Q517 781 587 751T711 667T795 543T826 391Q826 308 796 237T711 113T587
30T436 0ZM434 82Q499 82 555 106T653 173T720 272T744 392Q744 456 720 512T653 611T554 678T434 702Q370 702 314 678T215 611T148 512T124 392Q124 328 148 272T214 173T313 106T434 82Z" />
<glyph unicode="&#xaa;" horiz-adv-x="481" d="M239 390Q183 390 138 416T66 487T40 590Q40 646 66 691T137 762T240 788Q296 788 341 762T412 691T438 589L387 491Q365 448 330 419T239 390ZM239 488Q283 488 311 517T340 589Q340 633 312 661T240 690Q196 690
167 662T138 589Q138 546 167 517T239 488ZM390 384Q369 384 357 398T346 435L366 589H438V435Q438 413 424 399T390 384Z" />
<glyph unicode="&#xab;" horiz-adv-x="469" d="M386 0Q372 0 360 7T339 31L231 247Q224 260 224 273Q224 285 230 297L339 515Q352 546 386 546Q408 546 422 532T437 496Q437 484 432 474L332 273L432 72Q437 62 437 51Q437 30 423 15T386 0ZM199 0Q185 0 173
7T152 31L44 247Q41 254 39 260T37 273Q37 285 43 297L152 515Q167 546 199 546Q222 546 236 532T250 496Q250 482 246 474L146 273L246 72Q250 64 250 51Q250 30 236 15T199 0Z" />
<glyph unicode="&#xac;" horiz-adv-x="547" d="M459 216Q439 216 424 231T409 268V365H89Q67 365 53 379T38 416Q38 437 52 452T89 467H459Q481 467 496 452T511 416V268Q511 246 496 231T459 216Z" />
<glyph unicode="&#xad;" horiz-adv-x="391" d="M87 223Q65 223 51 237T36 273Q36 296 50 310T87 324H310Q332 324 346 310T360 273Q360 251 346 237T310 223H87Z" />
<glyph unicode="&#xae;" horiz-adv-x="859" d="M329 167Q310 167 300 178T289 205V597Q289 614 301 624T332 635H431Q479 635 516 617T574 565T596 489Q596 446 575 412T516 359T431 340H368V205Q368 189 358 178T329 167ZM569 167Q543 167 532 185L429 358L505
382L598 225Q612 203 604 185T569 167ZM368 410H437Q472 410 494 431T516 489Q516 525 494 545T437 565H368V410ZM436 0Q355 0 284 29T159 112T75 237T45 391Q45 472 75 542T158 666T283 750T436 781Q517 781 587 751T711 667T795 543T826 391Q826 308 796 237T711
113T587 30T436 0ZM434 82Q499 82 555 106T653 173T720 272T744 392Q744 456 720 512T653 611T554 678T434 702Q370 702 314 678T215 611T148 512T124 392Q124 328 148 272T214 173T313 106T434 82Z" />
<glyph unicode="&#xaf;" horiz-adv-x="547" d="M149 647Q127 647 113 659T98 693Q98 715 112 726T149 737H399Q421 737 436 726T451 693Q451 671 436 659T399 647H149Z" />
<glyph unicode="&#xb0;" horiz-adv-x="469" d="M236 371Q181 371 136 398T64 471T37 570Q37 624 64 669T136 742T236 770Q291 770 336 743T408 670T436 570Q436 516 409 471T336 399T236 371ZM236 473Q263 473 285 486T320 521T333 570Q333 597 320 619T285 654T236
667Q210 667 188 654T152 619T139 570Q139 543 152 521T187 486T236 473Z" />
<glyph unicode="&#xb1;" horiz-adv-x="547" d="M274 158Q252 158 238 172T223 209V343H89Q67 343 53 358T38 395Q38 417 52 431T89 446H223V580Q223 601 238 616T274 631Q297 631 311 617T325 580V446H459Q480 446 495 431T511 394Q511 373 496 358T459 343H325V209Q325
187 311 173T274 158ZM89 127Q67 127 53 142T38 179Q38 201 52 215T89 229H459Q481 229 496 215T511 179Q511 157 496 142T459 127H89Z" />
<glyph unicode="&#xb2;" horiz-adv-x="376" d="M90 386Q71 386 59 398T46 430Q46 438 48 446T57 461L209 616Q224 632 230 645T237 672Q237 691 223 706T180 721Q149 721 131 703T113 660Q113 641 104 630T76 618Q60 618 50 630T40 660Q40 719 77 756T181 794Q245
794 280 759T316 669Q316 634 296 609T258 565L126 432L123 468H287Q306 468 318 459T331 429Q331 409 319 398T287 386H90Z" />
<glyph unicode="&#xb3;" horiz-adv-x="384" d="M194 376Q129 376 87 411T45 501Q45 521 57 533T89 545Q107 545 118 533T129 501Q129 481 145 467T192 453Q216 453 235 465T254 501Q254 525 239 540T203 555Q181 555 169 565T156 593Q156 633 198 633Q220 633
232 643T245 672Q245 692 229 704T191 716Q166 716 149 706T128 678Q126 663 116 653T93 642Q75 642 64 653T52 682Q52 714 70 740T121 781T192 796Q248 796 285 763T322 679Q322 653 306 631T260 595Q300 585 319 558T339 496Q339 461 320 434T268 392T194 376Z"
/>
<glyph unicode="&#xb4;" horiz-adv-x="273" d="M102 583Q80 583 66 597T51 634Q51 655 63 668L161 766Q176 781 197 781Q220 781 234 766T248 729Q248 707 234 694L137 597Q123 583 102 583Z" />
<glyph unicode="&#xb5;" horiz-adv-x="682" d="M340 -5Q278 -5 231 30T156 123T129 251H79V497Q79 520 93 534T131 548Q153 548 167 534T181 497V251Q181 203 201 166T258 108T340 87Q384 87 418 103T471 149T490 215H543Q543 151 516 101T442 23T340 -5ZM131
-234Q108 -234 94 -220T79 -183V297H181V-183Q181 -205 167 -219T131 -234ZM542 0Q519 0 505 14T490 51V497Q490 520 504 534T542 548Q564 548 578 534T592 497V51Q592 29 578 15T542 0Z" />
<glyph unicode="&#xb6;" horiz-adv-x="593" d="M281 0Q259 0 245 14T230 51V382Q178 386 136 413T70 484T45 581Q45 638 71 683T142 755T244 781H496Q519 781 533 767T548 729Q548 713 538 700T511 681V51Q511 29 497 15T459 0Q438 0 424 14T409 51V679H332V51Q332
29 318 15T281 0Z" />
<glyph unicode="&#xb7;" horiz-adv-x="195" d="M98 297Q70 297 50 317T29 367Q29 395 49 415T98 436Q127 436 147 416T167 366Q167 338 147 318T98 297Z" />
<glyph unicode="&#xb8;" horiz-adv-x="313" d="M159 -234Q99 -234 61 -209T22 -150Q22 -130 36 -116T69 -102Q81 -102 89 -107T103 -127Q110 -145 125 -153T160 -162Q180 -162 193 -153T206 -127Q206 -109 196 -98T161 -83Q130 -78 118 -63T116 -15L126 13Q140
54 183 54Q208 54 220 38T222 -1L207 -35Q259 -46 283 -69T307 -130Q307 -156 289 -180T238 -219T159 -234Z" />
<glyph unicode="&#xb9;" horiz-adv-x="302" d="M190 386Q169 386 159 400T148 437V680L120 671Q89 661 67 662T36 684Q29 704 40 719T70 740L181 777Q212 788 223 773T234 729V437Q234 415 224 401T190 386Z" />
<glyph unicode="&#xba;" horiz-adv-x="478" d="M239 390Q183 390 138 416T66 487T40 590Q40 646 66 691T137 762T240 788Q296 788 341 762T412 691T438 589Q438 533 412 488T341 416T239 390ZM239 488Q283 488 311 517T340 589Q340 633 312 661T240 690Q196 690
167 662T138 589Q138 546 167 517T239 488Z" />
<glyph unicode="&#xbb;" horiz-adv-x="469" d="M275 0Q253 0 239 15T224 51Q224 63 229 72L329 273L229 474Q227 479 226 484T224 496Q224 518 238 532T275 546Q309 546 322 515L431 297Q434 291 435 285T437 273Q437 267 435 261T430 247L322 31Q315 15 302 8T275
0ZM88 0Q67 0 53 15T38 51Q38 63 42 72L142 273L42 474Q41 479 39 484T37 496Q37 518 52 532T88 546Q122 546 135 515L244 297Q247 291 248 285T250 273Q250 260 243 247L135 31Q128 15 115 8T88 0Z" />
<glyph unicode="&#xbc;" horiz-adv-x="794" d="M190 386Q169 386 159 400T148 437V680L120 671Q89 661 67 662T36 684Q29 704 40 719T70 740L181 777Q212 788 223 773T234 729V437Q234 415 224 401T190 386ZM158 0Q141 0 129 15T130 53L580 753Q590 768 601 775T623
782Q643 782 655 764T650 717L196 25Q179 0 158 0ZM635 -10Q617 -10 606 0T595 26V81H431Q415 81 405 91T395 115Q395 127 406 143L597 391Q605 401 615 405T635 410Q652 410 664 400T677 375V153H708Q723 153 733 143T744 117Q744 101 734 91T708 81H677V26Q677
10 666 0T635 -10ZM496 153H595V285L496 153Z" />
<glyph unicode="&#xbd;" horiz-adv-x="885" d="M190 386Q169 386 159 400T148 437V680L120 671Q89 661 67 662T36 684Q29 704 40 719T70 740L181 777Q212 788 223 773T234 729V437Q234 415 224 401T190 386ZM206 0Q189 0 177 15T178 53L628 753Q638 768 649 775T671
782Q691 782 703 764T698 717L244 25Q227 0 206 0ZM589 0Q570 0 558 12T545 44Q545 52 547 60T556 75L708 230Q723 246 729 259T736 286Q736 305 722 320T679 335Q648 335 630 317T612 274Q612 255 603 244T575 232Q559 232 549 244T539 274Q539 333 576 370T680
408Q744 408 779 373T815 283Q815 248 795 223T757 179L625 46L622 82H786Q805 82 817 73T830 43Q830 23 818 12T786 0H589Z" />
<glyph unicode="&#xbe;" horiz-adv-x="863" d="M194 376Q129 376 87 411T45 501Q45 521 57 533T89 545Q107 545 118 533T129 501Q129 481 145 467T192 453Q216 453 235 465T254 501Q254 525 239 540T203 555Q181 555 169 565T156 593Q156 633 198 633Q220 633
232 643T245 672Q245 692 229 704T191 716Q166 716 149 706T128 678Q126 663 116 653T93 642Q75 642 64 653T52 682Q52 714 70 740T121 781T192 796Q248 796 285 763T322 679Q322 653 306 631T260 595Q300 585 319 558T339 496Q339 461 320 434T268 392T194 376ZM206
0Q189 0 177 15T178 53L628 753Q638 768 649 775T671 782Q691 782 703 764T698 717L244 25Q227 0 206 0ZM699 -10Q681 -10 670 0T659 26V81H495Q479 81 469 91T459 115Q459 127 470 143L661 391Q669 401 679 405T699 410Q716 410 728 400T741 375V153H772Q787 153
797 143T808 117Q808 101 798 91T772 81H741V26Q741 10 730 0T699 -10ZM560 153H659V285L560 153Z" />
<glyph unicode="&#xbf;" horiz-adv-x="547" d="M270 436Q293 436 307 422T321 385Q321 346 301 300T239 217Q211 193 188 170T150 116T135 41Q135 9 150 -19T193 -64T260 -82Q309 -82 341 -64T388 -14T404 61Q404 84 418 98T455 112Q478 112 492 98T506 61Q506
-8 476 -61T390 -145T260 -176Q196 -176 145 -149T65 -72T35 41Q35 98 53 138T102 212T173 276Q199 297 209 330T219 385Q219 408 233 422T270 436ZM270 621Q299 621 319 601T339 552Q339 523 319 503T270 482Q242 482 221 503T200 552Q200 580 220 600T270 621Z"
/>
<glyph unicode="&#xc0;" horiz-adv-x="703" d="M69 0Q41 0 26 24T23 75L304 746Q319 781 353 781Q389 781 402 746L684 73Q695 45 681 23T637 0Q622 0 609 8T589 32L341 648H369L117 32Q110 16 97 8T69 0ZM122 172L162 258H554L594 172H122ZM349 867Q327 867 314
881L216 978Q203 991 203 1013Q203 1035 217 1050T253 1065Q274 1065 290 1050L387 952Q400 939 400 918Q400 896 386 882T349 867Z" />
<glyph unicode="&#xc1;" horiz-adv-x="703" d="M69 0Q41 0 26 24T23 75L304 746Q319 781 353 781Q389 781 402 746L684 73Q695 45 681 23T637 0Q622 0 609 8T589 32L341 648H369L117 32Q110 16 97 8T69 0ZM122 172L162 258H554L594 172H122ZM356 867Q334 867 320
881T305 918Q305 939 317 952L415 1050Q430 1065 451 1065Q474 1065 488 1050T502 1013Q502 1003 499 994T488 978L391 881Q377 867 356 867Z" />
<glyph unicode="&#xc2;" horiz-adv-x="703" d="M69 0Q41 0 26 24T23 75L304 746Q319 781 353 781Q389 781 402 746L684 73Q695 45 681 23T637 0Q622 0 609 8T589 32L341 648H369L117 32Q110 16 97 8T69 0ZM122 172L162 258H554L594 172H122ZM241 849Q219 849 205
860T190 890Q190 916 214 934L326 1007Q339 1015 352 1015Q360 1015 366 1014T379 1007L490 934Q514 916 514 890Q514 872 500 861T464 849Q454 849 447 851T431 860L352 916L273 860Q259 849 241 849Z" />
<glyph unicode="&#xc3;" horiz-adv-x="703" d="M69 0Q41 0 26 24T23 75L304 746Q319 781 353 781Q389 781 402 746L684 73Q695 45 681 23T637 0Q622 0 609 8T589 32L341 648H369L117 32Q110 16 97 8T69 0ZM122 172L162 258H554L594 172H122ZM422 862Q396 862 375
873T335 903Q323 914 315 920T297 927Q287 927 280 920T265 899Q256 884 240 878T207 878Q190 886 184 902T187 936Q208 974 233 991T289 1009Q324 1009 344 993T377 965Q389 955 396 951T411 947Q422 947 433 962Q444 978 460 985T493 985Q512 976 518 959T513
925Q493 892 471 877T422 862Z" />
<glyph unicode="&#xc4;" horiz-adv-x="703" d="M69 0Q41 0 26 24T23 75L304 746Q319 781 353 781Q389 781 402 746L684 73Q695 45 681 23T637 0Q622 0 609 8T589 32L341 648H369L117 32Q110 16 97 8T69 0ZM122 172L162 258H554L594 172H122ZM241 865Q216 865 198
882T180 925Q180 949 198 967T241 985Q265 985 283 967T301 925Q301 900 283 883T241 865ZM463 865Q438 865 421 882T403 925Q403 949 420 967T463 985Q487 985 505 967T523 925Q523 900 505 883T463 865Z" />
<glyph unicode="&#xc5;" horiz-adv-x="703" d="M69 0Q41 0 26 24T23 75L304 746Q319 781 353 781Q389 781 402 746L684 73Q695 45 681 23T637 0Q622 0 609 8T589 32L341 648H369L117 32Q110 16 97 8T69 0ZM122 172L162 258H554L594 172H122ZM352 820Q305 820 275
850T245 927Q245 974 275 1004T352 1035Q399 1035 429 1005T459 927Q459 880 429 850T352 820ZM352 876Q375 876 389 890T403 927Q403 950 389 964T352 979Q330 979 315 965T300 927Q300 905 315 891T352 876Z" />
<glyph unicode="&#xc6;" horiz-adv-x="1001" d="M71 0Q52 0 38 11T20 40T25 75L445 749Q454 763 467 772T500 781H905Q928 781 942 768T956 732Q956 711 942 698T905 685H545V442H792Q815 442 829 429T843 394Q843 373 829 360T792 346H545V96H905Q928 96 942
83T956 49Q956 27 942 14T905 0H493Q471 0 456 15T441 52V172H205L119 32Q100 0 71 0ZM258 258H441V599L465 602L258 258Z" />
<glyph unicode="&#xc7;" horiz-adv-x="777" d="M450 -10Q369 -10 299 20T176 105T94 233T64 391Q64 475 93 547T175 674T298 760T450 791Q527 791 582 771T694 705Q702 699 706 693T712 680T714 664Q714 645 701 633T668 619T631 631Q594 663 555 680T450 697Q391
697 339 673T248 607T186 510T164 391Q164 327 186 272T247 174T339 109T450 85Q501 85 546 102T634 151Q652 164 669 163T699 149T711 114Q711 104 707 95T695 77Q641 34 580 12T450 -10ZM438 -234Q378 -234 340 -209T301 -150Q301 -130 315 -116T348 -102Q360
-102 368 -107T382 -127Q389 -145 404 -153T439 -162Q459 -162 472 -153T485 -127Q485 -109 475 -98T440 -83Q409 -78 397 -63T395 -15L405 13Q412 33 426 43T462 54Q487 54 499 38T501 -1L486 -35Q538 -46 562 -69T586 -130Q586 -156 568 -180T517 -219T438 -234Z"
/>
<glyph unicode="&#xc8;" horiz-adv-x="700" d="M152 0Q130 0 115 15T100 52V729Q100 752 115 766T152 781H604Q627 781 641 768T655 732Q655 711 641 698T604 685H204V442H491Q514 442 528 429T542 394Q542 373 528 360T491 346H204V96H604Q627 96 641 83T655
49Q655 27 641 14T604 0H152ZM387 867Q365 867 352 881L254 978Q241 991 241 1013Q241 1035 255 1050T291 1065Q312 1065 328 1050L425 952Q438 939 438 918Q438 896 424 882T387 867Z" />
<glyph unicode="&#xc9;" horiz-adv-x="700" d="M152 0Q130 0 115 15T100 52V729Q100 752 115 766T152 781H604Q627 781 641 768T655 732Q655 711 641 698T604 685H204V442H491Q514 442 528 429T542 394Q542 373 528 360T491 346H204V96H604Q627 96 641 83T655
49Q655 27 641 14T604 0H152ZM394 867Q372 867 358 881T343 918Q343 939 355 952L453 1050Q468 1065 489 1065Q512 1065 526 1050T540 1013Q540 1003 537 994T526 978L429 881Q415 867 394 867Z" />
<glyph unicode="&#xca;" horiz-adv-x="700" d="M152 0Q130 0 115 15T100 52V729Q100 752 115 766T152 781H604Q627 781 641 768T655 732Q655 711 641 698T604 685H204V442H491Q514 442 528 429T542 394Q542 373 528 360T491 346H204V96H604Q627 96 641 83T655
49Q655 27 641 14T604 0H152ZM279 849Q257 849 243 860T228 890Q228 916 252 934L364 1007Q377 1015 390 1015Q398 1015 404 1014T417 1007L528 934Q552 916 552 890Q552 872 538 861T502 849Q492 849 485 851T469 860L390 916L311 860Q297 849 279 849Z" />
<glyph unicode="&#xcb;" horiz-adv-x="700" d="M152 0Q130 0 115 15T100 52V729Q100 752 115 766T152 781H604Q627 781 641 768T655 732Q655 711 641 698T604 685H204V442H491Q514 442 528 429T542 394Q542 373 528 360T491 346H204V96H604Q627 96 641 83T655
49Q655 27 641 14T604 0H152ZM279 865Q254 865 236 882T218 925Q218 949 236 967T279 985Q303 985 321 967T339 925Q339 900 321 883T279 865ZM501 865Q476 865 459 882T441 925Q441 949 458 967T501 985Q525 985 543 967T561 925Q561 900 543 883T501 865Z" />
<glyph unicode="&#xcc;" horiz-adv-x="304" d="M152 0Q130 0 115 15T100 52V729Q100 752 115 766T152 781Q175 781 189 767T204 729V52Q204 30 190 15T152 0ZM149 867Q127 867 114 881L16 978Q3 991 3 1013Q3 1035 17 1050T53 1065Q74 1065 90 1050L187 952Q200
939 200 918Q200 896 186 882T149 867Z" />
<glyph unicode="&#xcd;" horiz-adv-x="304" d="M152 0Q130 0 115 15T100 52V729Q100 752 115 766T152 781Q175 781 189 767T204 729V52Q204 30 190 15T152 0ZM156 867Q134 867 120 881T105 918Q105 939 117 952L215 1050Q230 1065 251 1065Q274 1065 288 1050T302
1013Q302 1003 299 994T288 978L191 881Q177 867 156 867Z" />
<glyph unicode="&#xce;" horiz-adv-x="304" d="M152 0Q130 0 115 15T100 52V729Q100 752 115 766T152 781Q175 781 189 767T204 729V52Q204 30 190 15T152 0ZM41 849Q19 849 5 860T-10 890Q-10 916 14 934L126 1007Q139 1015 152 1015Q160 1015 166 1014T179 1007L290
934Q314 916 314 890Q314 872 300 861T264 849Q254 849 247 851T231 860L152 916L73 860Q59 849 41 849Z" />
<glyph unicode="&#xcf;" horiz-adv-x="304" d="M152 0Q130 0 115 15T100 52V729Q100 752 115 766T152 781Q175 781 189 767T204 729V52Q204 30 190 15T152 0ZM41 865Q16 865 -2 882T-20 925Q-20 949 -2 967T41 985Q65 985 83 967T101 925Q101 900 83 883T41 865ZM263
865Q238 865 221 882T203 925Q203 949 220 967T263 985Q287 985 305 967T323 925Q323 900 305 883T263 865Z" />
<glyph unicode="&#xd0;" horiz-adv-x="783" d="M50 346Q28 346 14 358T-1 391Q-1 412 13 424T50 436H332Q355 436 369 424T384 391Q384 370 370 358T332 346H50ZM152 0Q130 0 115 15T100 52V729Q100 752 115 766T152 781H333Q419 781 489 753T612 672T692 548T720
391Q720 305 692 234T612 110T490 29T333 0H152ZM204 92H333Q417 92 481 130T583 236T620 391Q620 479 583 546T482 651T333 689H204V92Z" />
<glyph unicode="&#xd1;" horiz-adv-x="830" d="M151 0Q129 0 115 15T100 52V729Q100 752 114 766T151 781Q175 781 191 762L627 182V729Q627 752 642 766T679 781Q702 781 716 767T730 729V52Q730 30 716 15T679 0Q669 0 658 4T639 18L203 598V52Q203 30 189 15T151
0ZM522 856Q488 856 463 866T420 887Q398 899 382 904T354 910Q340 910 329 905T306 883Q294 867 277 860T241 861Q227 868 224 887T232 922Q255 956 288 973T361 990Q393 990 417 980T459 960Q482 947 494 942T519 937Q532 937 542 942T559 954Q573 968 586 973T618
968Q633 959 634 939T623 903Q585 856 522 856Z" />
<glyph unicode="&#xd2;" horiz-adv-x="921" d="M461 -10Q373 -10 300 19T175 102T93 229T64 391Q64 479 93 552T174 678T300 761T461 791Q549 791 621 762T747 679T829 552T858 391Q858 303 829 230T747 103T622 20T461 -10ZM461 84Q526 84 580 107T675 172T736
270T758 391Q758 456 737 512T675 609T581 674T461 697Q396 697 342 674T248 610T186 512T164 391Q164 326 186 270T247 173T341 108T461 84ZM458 867Q436 867 423 881L325 978Q312 991 312 1013Q312 1035 326 1050T362 1065Q383 1065 399 1050L496 952Q509 939
509 918Q509 896 495 882T458 867Z" />
<glyph unicode="&#xd3;" horiz-adv-x="921" d="M461 -10Q373 -10 300 19T175 102T93 229T64 391Q64 479 93 552T174 678T300 761T461 791Q549 791 621 762T747 679T829 552T858 391Q858 303 829 230T747 103T622 20T461 -10ZM461 84Q526 84 580 107T675 172T736
270T758 391Q758 456 737 512T675 609T581 674T461 697Q396 697 342 674T248 610T186 512T164 391Q164 326 186 270T247 173T341 108T461 84ZM465 867Q443 867 429 881T414 918Q414 939 426 952L524 1050Q539 1065 560 1065Q583 1065 597 1050T611 1013Q611 1003
608 994T597 978L500 881Q486 867 465 867Z" />
<glyph unicode="&#xd4;" horiz-adv-x="921" d="M461 -10Q373 -10 300 19T175 102T93 229T64 391Q64 479 93 552T174 678T300 761T461 791Q549 791 621 762T747 679T829 552T858 391Q858 303 829 230T747 103T622 20T461 -10ZM461 84Q526 84 580 107T675 172T736
270T758 391Q758 456 737 512T675 609T581 674T461 697Q396 697 342 674T248 610T186 512T164 391Q164 326 186 270T247 173T341 108T461 84ZM350 849Q328 849 314 860T299 890Q299 916 323 934L435 1007Q448 1015 461 1015Q469 1015 475 1014T488 1007L599 934Q623
916 623 890Q623 872 609 861T573 849Q563 849 556 851T540 860L461 916L382 860Q368 849 350 849Z" />
<glyph unicode="&#xd5;" horiz-adv-x="921" d="M461 -10Q373 -10 300 19T175 102T93 229T64 391Q64 479 93 552T174 678T300 761T461 791Q549 791 621 762T747 679T829 552T858 391Q858 303 829 230T747 103T622 20T461 -10ZM461 84Q526 84 580 107T675 172T736
270T758 391Q758 456 737 512T675 609T581 674T461 697Q396 697 342 674T248 610T186 512T164 391Q164 326 186 270T247 173T341 108T461 84ZM568 856Q534 856 509 866T466 887Q444 899 428 904T400 910Q386 910 375 905T352 883Q340 867 323 860T287 861Q273 868
270 887T278 922Q301 956 334 973T407 990Q439 990 463 980T505 960Q528 947 540 942T565 937Q578 937 588 942T605 954Q619 968 632 973T664 968Q679 959 680 939T669 903Q631 856 568 856Z" />
<glyph unicode="&#xd6;" horiz-adv-x="921" d="M461 -10Q373 -10 300 19T175 102T93 229T64 391Q64 479 93 552T174 678T300 761T461 791Q549 791 621 762T747 679T829 552T858 391Q858 303 829 230T747 103T622 20T461 -10ZM461 84Q526 84 580 107T675 172T736
270T758 391Q758 456 737 512T675 609T581 674T461 697Q396 697 342 674T248 610T186 512T164 391Q164 326 186 270T247 173T341 108T461 84ZM350 865Q325 865 307 882T289 925Q289 949 307 967T350 985Q374 985 392 967T410 925Q410 900 392 883T350 865ZM572
865Q547 865 530 882T512 925Q512 949 529 967T572 985Q596 985 614 967T632 925Q632 900 614 883T572 865Z" />
<glyph unicode="&#xd7;" horiz-adv-x="469" d="M88 148Q66 148 52 162T37 199Q37 221 51 235L164 348L51 460Q37 477 37 496Q37 517 51 532T88 547Q109 547 125 532L236 420L348 532Q363 547 385 547Q406 547 421 532T436 496Q436 477 421 460L309 348L421 235Q436
220 436 199Q436 177 421 163T385 148Q363 148 349 162L236 275L123 162Q109 148 88 148Z" />
<glyph unicode="&#xd8;" horiz-adv-x="921" d="M89 0Q67 0 60 19T66 51L159 144L191 168L695 672L723 693L804 773Q812 781 825 781Q844 781 854 764T848 731L767 650L741 631L232 122L204 102L110 8Q102 0 89 0ZM461 -10Q373 -10 300 19T175 102T93 229T64 391Q64
479 93 552T174 678T300 761T461 791Q549 791 621 762T747 679T829 552T858 391Q858 303 829 230T747 103T622 20T461 -10ZM461 84Q526 84 580 107T675 172T736 270T758 391Q758 456 737 512T675 609T581 674T461 697Q396 697 342 674T248 610T186 512T164 391Q164
326 186 270T247 173T341 108T461 84Z" />
<glyph unicode="&#xd9;" horiz-adv-x="845" d="M427 -16Q331 -16 257 19T142 118T100 262V729Q100 752 115 766T152 781Q175 781 189 767T204 729V262Q204 208 232 167T311 102T427 78Q490 78 538 101T614 166T642 262V729Q642 752 657 766T694 781Q717 781 731
767T745 729V262Q745 181 705 118T592 20T427 -16ZM420 867Q398 867 385 881L287 978Q274 991 274 1013Q274 1035 288 1050T324 1065Q345 1065 361 1050L458 952Q471 939 471 918Q471 896 457 882T420 867Z" />
<glyph unicode="&#xda;" horiz-adv-x="845" d="M427 -16Q331 -16 257 19T142 118T100 262V729Q100 752 115 766T152 781Q175 781 189 767T204 729V262Q204 208 232 167T311 102T427 78Q490 78 538 101T614 166T642 262V729Q642 752 657 766T694 781Q717 781 731
767T745 729V262Q745 181 705 118T592 20T427 -16ZM427 867Q405 867 391 881T376 918Q376 939 388 952L486 1050Q501 1065 522 1065Q545 1065 559 1050T573 1013Q573 1003 570 994T559 978L462 881Q448 867 427 867Z" />
<glyph unicode="&#xdb;" horiz-adv-x="845" d="M427 -16Q331 -16 257 19T142 118T100 262V729Q100 752 115 766T152 781Q175 781 189 767T204 729V262Q204 208 232 167T311 102T427 78Q490 78 538 101T614 166T642 262V729Q642 752 657 766T694 781Q717 781 731
767T745 729V262Q745 181 705 118T592 20T427 -16ZM312 849Q290 849 276 860T261 890Q261 916 285 934L397 1007Q410 1015 423 1015Q431 1015 437 1014T450 1007L561 934Q585 916 585 890Q585 872 571 861T535 849Q525 849 518 851T502 860L423 916L344 860Q330
849 312 849Z" />
<glyph unicode="&#xdc;" horiz-adv-x="845" d="M427 -16Q331 -16 257 19T142 118T100 262V729Q100 752 115 766T152 781Q175 781 189 767T204 729V262Q204 208 232 167T311 102T427 78Q490 78 538 101T614 166T642 262V729Q642 752 657 766T694 781Q717 781 731
767T745 729V262Q745 181 705 118T592 20T427 -16ZM312 865Q287 865 269 882T251 925Q251 949 269 967T312 985Q336 985 354 967T372 925Q372 900 354 883T312 865ZM534 865Q509 865 492 882T474 925Q474 949 491 967T534 985Q558 985 576 967T594 925Q594 900
576 883T534 865Z" />
<glyph unicode="&#xdd;" horiz-adv-x="670" d="M334 0Q313 0 298 15T283 52V285L16 700Q3 721 6 739T23 769T57 781Q74 781 84 774T103 752L357 349H317L575 756Q583 768 594 774T621 781Q639 781 651 769T665 738T655 700L386 285V52Q386 30 371 15T334 0ZM339
867Q317 867 303 881T288 918Q288 939 300 952L398 1050Q413 1065 434 1065Q457 1065 471 1050T485 1013Q485 1003 482 994T471 978L374 881Q360 867 339 867Z" />
<glyph unicode="&#xde;" horiz-adv-x="623" d="M152 0Q130 0 115 15T100 52V729Q100 752 115 766T152 781Q175 781 189 767T204 729V635H352Q427 635 485 606T575 525T608 402Q608 335 576 284T485 205T352 177H204V52Q204 30 190 15T152 0ZM204 267H352Q398 267
433 284T488 332T508 402Q508 444 488 476T433 526T352 545H204V267Z" />
<glyph unicode="&#xdf;" horiz-adv-x="547" d="M89 0Q67 0 53 14T38 51V578Q38 637 67 682T145 754T256 780Q315 780 359 756T428 690T453 598Q453 565 441 542T413 501T384 466T372 425Q372 402 386 383T422 345T464 304T499 252T514 182Q514 129 489 88T420
23T315 0Q283 0 248 13T190 48T166 97Q166 119 177 130T211 141Q227 141 237 134T257 116T282 98T325 90Q368 90 391 116T414 182Q414 212 401 235T368 277T329 317T296 363T282 422Q282 458 294 479T322 515T351 549T363 600Q363 642 334 666T254 690Q207 690
175 660T142 578V51Q142 29 127 15T89 0Z" />
<glyph unicode="&#xe0;" horiz-adv-x="675" d="M318 -4Q245 -4 187 32T96 131T62 273Q62 352 98 415T197 514T338 551Q416 551 478 515T576 415T613 273H574Q574 194 541 132T449 33T318 -4ZM338 86Q389 86 429 110T492 177T515 273Q515 327 492 369T429 436T338
461Q288 461 248 437T184 370T160 273Q160 220 183 178T247 111T338 86ZM562 -1Q540 -1 526 13T511 50V203L530 309L613 273V50Q613 28 599 14T562 -1ZM335 633Q313 633 300 647L202 744Q189 757 189 779Q189 801 203 816T239 831Q260 831 276 816L373 718Q386
705 386 684Q386 662 372 648T335 633Z" />
<glyph unicode="&#xe1;" horiz-adv-x="675" d="M318 -4Q245 -4 187 32T96 131T62 273Q62 352 98 415T197 514T338 551Q416 551 478 515T576 415T613 273H574Q574 194 541 132T449 33T318 -4ZM338 86Q389 86 429 110T492 177T515 273Q515 327 492 369T429 436T338
461Q288 461 248 437T184 370T160 273Q160 220 183 178T247 111T338 86ZM562 -1Q540 -1 526 13T511 50V203L530 309L613 273V50Q613 28 599 14T562 -1ZM342 633Q320 633 306 647T291 684Q291 705 303 718L401 816Q416 831 437 831Q460 831 474 816T488 779Q488
769 485 760T474 744L377 647Q363 633 342 633Z" />
<glyph unicode="&#xe2;" horiz-adv-x="675" d="M318 -4Q245 -4 187 32T96 131T62 273Q62 352 98 415T197 514T338 551Q416 551 478 515T576 415T613 273H574Q574 194 541 132T449 33T318 -4ZM338 86Q389 86 429 110T492 177T515 273Q515 327 492 369T429 436T338
461Q288 461 248 437T184 370T160 273Q160 220 183 178T247 111T338 86ZM562 -1Q540 -1 526 13T511 50V203L530 309L613 273V50Q613 28 599 14T562 -1ZM227 615Q205 615 191 626T176 656Q176 682 200 700L312 773Q325 781 338 781Q346 781 352 780T365 773L476
700Q500 682 500 656Q500 638 486 627T450 615Q440 615 433 617T417 626L338 682L259 626Q245 615 227 615Z" />
<glyph unicode="&#xe3;" horiz-adv-x="675" d="M318 -4Q245 -4 187 32T96 131T62 273Q62 352 98 415T197 514T338 551Q416 551 478 515T576 415T613 273H574Q574 194 541 132T449 33T318 -4ZM338 86Q389 86 429 110T492 177T515 273Q515 327 492 369T429 436T338
461Q288 461 248 437T184 370T160 273Q160 220 183 178T247 111T338 86ZM562 -1Q540 -1 526 13T511 50V203L530 309L613 273V50Q613 28 599 14T562 -1ZM445 622Q411 622 386 632T343 653Q321 665 305 670T277 676Q263 676 252 671T229 649Q217 633 200 626T164
627Q150 634 147 653T155 688Q178 722 211 739T284 756Q316 756 340 746T382 726Q405 713 417 708T442 703Q455 703 465 708T482 720Q496 734 509 739T541 734Q556 725 557 705T546 669Q508 622 445 622Z" />
<glyph unicode="&#xe4;" horiz-adv-x="675" d="M318 -4Q245 -4 187 32T96 131T62 273Q62 352 98 415T197 514T338 551Q416 551 478 515T576 415T613 273H574Q574 194 541 132T449 33T318 -4ZM338 86Q389 86 429 110T492 177T515 273Q515 327 492 369T429 436T338
461Q288 461 248 437T184 370T160 273Q160 220 183 178T247 111T338 86ZM562 -1Q540 -1 526 13T511 50V203L530 309L613 273V50Q613 28 599 14T562 -1ZM227 631Q202 631 184 648T166 691Q166 715 184 733T227 751Q251 751 269 733T287 691Q287 666 269 649T227
631ZM449 631Q424 631 407 648T389 691Q389 715 406 733T449 751Q473 751 491 733T509 691Q509 666 491 649T449 631Z" />
<glyph unicode="&#xe5;" horiz-adv-x="675" d="M318 -4Q245 -4 187 32T96 131T62 273Q62 352 98 415T197 514T338 551Q416 551 478 515T576 415T613 273H574Q574 194 541 132T449 33T318 -4ZM338 86Q389 86 429 110T492 177T515 273Q515 327 492 369T429 436T338
461Q288 461 248 437T184 370T160 273Q160 220 183 178T247 111T338 86ZM562 -1Q540 -1 526 13T511 50V203L530 309L613 273V50Q613 28 599 14T562 -1ZM338 586Q291 586 261 616T231 693Q231 740 261 770T338 801Q385 801 415 771T445 693Q445 646 415 616T338
586ZM338 642Q361 642 375 656T389 693Q389 716 375 730T338 745Q316 745 301 731T286 693Q286 671 301 657T338 642Z" />
<glyph unicode="&#xe6;" horiz-adv-x="1079" d="M805 -4Q725 -4 663 31T565 129T530 273Q530 355 563 417T655 515T790 551Q868 551 924 517T1009 422T1039 282Q1039 263 1026 251T993 238H590V318H990L949 290Q948 340 929 379T875 442T790 465Q733 465 693 440T631
372T610 273Q610 218 635 175T704 107T805 82Q836 82 868 93T921 120Q936 131 954 132T984 121Q1001 105 1002 88T986 57Q952 31 902 14T805 -4ZM318 -4Q245 -4 187 32T96 131T62 273Q62 352 98 415T197 514T338 551Q416 551 478 515T576 415T613 273H574Q574 194
541 132T449 33T318 -4ZM338 86Q389 86 429 110T492 177T515 273Q515 327 492 369T429 436T338 461Q288 461 248 437T184 370T160 273Q160 220 183 178T247 111T338 86ZM562 -1Q540 -1 526 13T511 50V203L530 309L613 273V50Q613 28 599 14T562 -1Z" />
<glyph unicode="&#xe7;" horiz-adv-x="601" d="M338 -4Q258 -4 196 32T98 131T62 273Q62 354 97 417T193 515T333 551Q392 551 441 529T529 461Q543 445 539 428T517 398Q503 388 486 391T455 409Q406 461 333 461Q282 461 243 438T182 372T160 273Q160 219 182
177T245 111T338 86Q373 86 399 94T448 121Q464 134 481 135T511 126Q528 112 530 95T518 63Q446 -4 338 -4ZM320 -234Q260 -234 222 -209T183 -150Q183 -130 197 -116T230 -102Q242 -102 250 -107T264 -127Q271 -145 286 -153T321 -162Q341 -162 354 -153T367
-127Q367 -109 357 -98T322 -83Q291 -78 279 -63T277 -15L287 13Q294 33 308 43T344 54Q369 54 381 38T383 -1L368 -35Q420 -46 444 -69T468 -130Q468 -156 450 -180T399 -219T320 -234Z" />
<glyph unicode="&#xe8;" horiz-adv-x="621" d="M347 -4Q264 -4 200 31T99 129T62 273Q62 355 96 417T192 515T332 551Q410 551 466 517T551 422T581 282Q581 263 568 251T535 238H132V318H532L491 290Q490 340 471 379T417 442T332 465Q275 465 235 440T173 372T152
273Q152 218 177 175T246 107T347 82Q378 82 410 93T463 120Q478 131 495 131T526 121Q543 106 544 88T528 57Q494 30 444 13T347 -4ZM319 633Q297 633 284 647L186 744Q173 757 173 779Q173 801 187 816T223 831Q244 831 260 816L357 718Q370 705 370 684Q370
662 356 648T319 633Z" />
<glyph unicode="&#xe9;" horiz-adv-x="621" d="M347 -4Q264 -4 200 31T99 129T62 273Q62 355 96 417T192 515T332 551Q410 551 466 517T551 422T581 282Q581 263 568 251T535 238H132V318H532L491 290Q490 340 471 379T417 442T332 465Q275 465 235 440T173 372T152
273Q152 218 177 175T246 107T347 82Q378 82 410 93T463 120Q478 131 495 131T526 121Q543 106 544 88T528 57Q494 30 444 13T347 -4ZM326 633Q304 633 290 647T275 684Q275 705 287 718L385 816Q400 831 421 831Q444 831 458 816T472 779Q472 769 469 760T458
744L361 647Q347 633 326 633Z" />
<glyph unicode="&#xea;" horiz-adv-x="621" d="M347 -4Q264 -4 200 31T99 129T62 273Q62 355 96 417T192 515T332 551Q410 551 466 517T551 422T581 282Q581 263 568 251T535 238H132V318H532L491 290Q490 340 471 379T417 442T332 465Q275 465 235 440T173 372T152
273Q152 218 177 175T246 107T347 82Q378 82 410 93T463 120Q478 131 495 131T526 121Q543 106 544 88T528 57Q494 30 444 13T347 -4ZM211 615Q189 615 175 626T160 656Q160 682 184 700L296 773Q309 781 322 781Q330 781 336 780T349 773L460 700Q484 682 484
656Q484 638 470 627T434 615Q424 615 417 617T401 626L322 682L243 626Q229 615 211 615Z" />
<glyph unicode="&#xeb;" horiz-adv-x="621" d="M347 -4Q264 -4 200 31T99 129T62 273Q62 355 96 417T192 515T332 551Q410 551 466 517T551 422T581 282Q581 263 568 251T535 238H132V318H532L491 290Q490 340 471 379T417 442T332 465Q275 465 235 440T173 372T152
273Q152 218 177 175T246 107T347 82Q378 82 410 93T463 120Q478 131 495 131T526 121Q543 106 544 88T528 57Q494 30 444 13T347 -4ZM211 631Q186 631 168 648T150 691Q150 715 168 733T211 751Q235 751 253 733T271 691Q271 666 253 649T211 631ZM433 631Q408
631 391 648T373 691Q373 715 390 733T433 751Q457 751 475 733T493 691Q493 666 475 649T433 631Z" />
<glyph unicode="&#xec;" horiz-adv-x="302" d="M151 0Q129 0 115 14T100 51V496Q100 519 114 533T151 547Q174 547 188 533T202 496V51Q202 29 188 15T151 0ZM404 633Q382 633 369 647L271 744Q258 757 258 779Q258 801 272 816T308 831Q329 831 345 816L442 718Q455
705 455 684Q455 662 441 648T404 633Z" />
<glyph unicode="&#xed;" horiz-adv-x="302" d="M151 0Q129 0 115 14T100 51V496Q100 519 114 533T151 547Q174 547 188 533T202 496V51Q202 29 188 15T151 0ZM155 633Q133 633 119 647T104 684Q104 705 116 718L214 816Q229 831 250 831Q273 831 287 816T301 779Q301
769 298 760T287 744L190 647Q176 633 155 633Z" />
<glyph unicode="&#xee;" horiz-adv-x="302" d="M51 615Q31 615 18 626T5 656Q5 682 27 700L127 773Q139 781 151 781Q157 781 163 780T175 773L275 700Q297 682 297 656Q297 638 284 627T252 615Q243 615 236 617T222 626L151 682L80 626Q67 615 51 615ZM151 0Q129
0 115 14T100 51V496Q100 519 114 533T151 547Q174 547 188 533T202 496V51Q202 29 188 15T151 0Z" />
<glyph unicode="&#xef;" horiz-adv-x="302" d="M50 661Q25 661 7 678T-11 721Q-11 745 7 763T50 781Q74 781 92 763T110 721Q110 696 92 679T50 661ZM252 661Q227 661 210 678T192 721Q192 745 209 763T252 781Q276 781 294 763T312 721Q312 696 294 679T252 661ZM151
0Q129 0 115 14T100 51V496Q100 519 114 533T151 547Q174 547 188 533T202 496V51Q202 29 188 15T151 0Z" />
<glyph unicode="&#xf0;" horiz-adv-x="673" d="M328 -4Q250 -4 190 29T96 120T62 254Q62 330 93 387T180 478T308 511Q380 511 435 478T522 388T554 254H603Q603 179 568 121T470 29T328 -4ZM328 86Q380 86 420 107T482 167T505 254Q505 303 483 340T420 399T328
421Q279 421 241 400T182 341T160 254Q160 205 181 167T241 108T328 86ZM526 254L524 357Q522 438 508 494T462 589T374 658T234 716Q207 725 198 737T195 769Q202 787 219 789T256 783Q356 747 422 708T528 621T585 511T602 367L603 254H526ZM251 603Q239 610
234 619T237 644L333 817Q341 831 351 832T375 826Q390 817 393 807T391 785L295 611Q289 601 277 598T251 603Z" />
<glyph unicode="&#xf1;" horiz-adv-x="682" d="M552 -1Q530 -1 516 13T501 50V296Q501 353 480 389T424 442T342 460Q300 460 266 443T212 398T192 332H129Q129 395 159 444T243 523T362 552Q431 552 485 523T571 436T603 296V50Q603 28 589 14T552 -1ZM141 -1Q119
-1 105 13T90 50V496Q90 519 104 533T141 547Q164 547 178 533T192 496V50Q192 28 178 14T141 -1ZM448 622Q414 622 389 632T346 653Q324 665 308 670T280 676Q266 676 255 671T232 649Q220 633 203 626T167 627Q153 634 150 653T158 688Q181 722 214 739T287 756Q319
756 343 746T385 726Q408 713 420 708T445 703Q458 703 468 708T485 720Q499 734 512 739T544 734Q559 725 560 705T549 669Q511 622 448 622Z" />
<glyph unicode="&#xf2;" horiz-adv-x="675" d="M338 -4Q257 -4 195 31T98 129T62 273Q62 355 97 417T195 515T338 551Q418 551 480 516T577 418T613 273Q613 192 578 130T481 32T338 -4ZM338 86Q390 86 430 110T492 176T515 273Q515 328 493 370T430 437T338 461Q286
461 246 437T183 371T160 273Q160 218 183 176T246 110T338 86ZM335 633Q313 633 300 647L202 744Q189 757 189 779Q189 801 203 816T239 831Q260 831 276 816L373 718Q386 705 386 684Q386 662 372 648T335 633Z" />
<glyph unicode="&#xf3;" horiz-adv-x="675" d="M338 -4Q257 -4 195 31T98 129T62 273Q62 355 97 417T195 515T338 551Q418 551 480 516T577 418T613 273Q613 192 578 130T481 32T338 -4ZM338 86Q390 86 430 110T492 176T515 273Q515 328 493 370T430 437T338 461Q286
461 246 437T183 371T160 273Q160 218 183 176T246 110T338 86ZM342 633Q320 633 306 647T291 684Q291 705 303 718L401 816Q416 831 437 831Q460 831 474 816T488 779Q488 769 485 760T474 744L377 647Q363 633 342 633Z" />
<glyph unicode="&#xf4;" horiz-adv-x="675" d="M338 -4Q257 -4 195 31T98 129T62 273Q62 355 97 417T195 515T338 551Q418 551 480 516T577 418T613 273Q613 192 578 130T481 32T338 -4ZM338 86Q390 86 430 110T492 176T515 273Q515 328 493 370T430 437T338 461Q286
461 246 437T183 371T160 273Q160 218 183 176T246 110T338 86ZM227 615Q205 615 191 626T176 656Q176 682 200 700L312 773Q325 781 338 781Q346 781 352 780T365 773L476 700Q500 682 500 656Q500 638 486 627T450 615Q440 615 433 617T417 626L338 682L259 626Q245
615 227 615Z" />
<glyph unicode="&#xf5;" horiz-adv-x="675" d="M338 -4Q257 -4 195 31T98 129T62 273Q62 355 97 417T195 515T338 551Q418 551 480 516T577 418T613 273Q613 192 578 130T481 32T338 -4ZM338 86Q390 86 430 110T492 176T515 273Q515 328 493 370T430 437T338 461Q286
461 246 437T183 371T160 273Q160 218 183 176T246 110T338 86ZM445 622Q411 622 386 632T343 653Q321 665 305 670T277 676Q263 676 252 671T229 649Q217 633 200 626T164 627Q150 634 147 653T155 688Q178 722 211 739T284 756Q316 756 340 746T382 726Q405 713
417 708T442 703Q455 703 465 708T482 720Q496 734 509 739T541 734Q556 725 557 705T546 669Q508 622 445 622Z" />
<glyph unicode="&#xf6;" horiz-adv-x="675" d="M338 -4Q257 -4 195 31T98 129T62 273Q62 355 97 417T195 515T338 551Q418 551 480 516T577 418T613 273Q613 192 578 130T481 32T338 -4ZM338 86Q390 86 430 110T492 176T515 273Q515 328 493 370T430 437T338 461Q286
461 246 437T183 371T160 273Q160 218 183 176T246 110T338 86ZM227 631Q202 631 184 648T166 691Q166 715 184 733T227 751Q251 751 269 733T287 691Q287 666 269 649T227 631ZM449 631Q424 631 407 648T389 691Q389 715 406 733T449 751Q473 751 491 733T509
691Q509 666 491 649T449 631Z" />
<glyph unicode="&#xf7;" horiz-adv-x="469" d="M88 296Q66 296 52 311T37 348Q37 370 51 384T88 398H385Q407 398 421 384T436 348Q436 326 422 311T385 296H88ZM236 148Q211 148 194 166T176 209Q176 234 193 251T236 269Q261 269 278 252T296 209Q296 184 279
166T236 148ZM236 426Q211 426 194 444T176 487Q176 512 193 529T236 547Q261 547 278 530T296 487Q296 462 279 444T236 426Z" />
<glyph unicode="&#xf8;" horiz-adv-x="708" d="M94 -21Q73 -21 65 -3T72 31L145 105L185 137L492 444L525 475L593 542Q603 552 616 552Q631 552 638 543T646 521T638 500L566 428L536 403L227 95L196 69L116 -12Q106 -21 94 -21ZM358 -9Q277 -9 215 26T118 124T82
268Q82 350 117 412T215 510T358 546Q438 546 500 511T597 413T633 268Q633 187 598 125T501 27T358 -9ZM358 81Q410 81 450 105T512 171T535 268Q535 323 513 365T450 432T358 456Q306 456 266 432T203 366T180 268Q180 213 203 171T266 105T358 81Z" />
<glyph unicode="&#xf9;" horiz-adv-x="682" d="M320 -5Q251 -5 197 24T111 111T79 251V497Q79 519 93 533T130 548Q152 548 166 534T181 497V251Q181 195 202 159T259 105T340 87Q383 87 416 104T470 150T490 215H553Q553 153 523 103T440 24T320 -5ZM541 0Q519
0 505 14T490 51V497Q490 520 504 534T541 548Q564 548 578 534T592 497V51Q592 29 578 15T541 0ZM338 633Q316 633 303 647L205 744Q192 757 192 779Q192 801 206 816T242 831Q263 831 279 816L376 718Q389 705 389 684Q389 662 375 648T338 633Z" />
<glyph unicode="&#xfa;" horiz-adv-x="682" d="M320 -5Q251 -5 197 24T111 111T79 251V497Q79 519 93 533T130 548Q152 548 166 534T181 497V251Q181 195 202 159T259 105T340 87Q383 87 416 104T470 150T490 215H553Q553 153 523 103T440 24T320 -5ZM541 0Q519
0 505 14T490 51V497Q490 520 504 534T541 548Q564 548 578 534T592 497V51Q592 29 578 15T541 0ZM345 633Q323 633 309 647T294 684Q294 705 306 718L404 816Q419 831 440 831Q463 831 477 816T491 779Q491 769 488 760T477 744L380 647Q366 633 345 633Z" />
<glyph unicode="&#xfb;" horiz-adv-x="682" d="M320 -5Q251 -5 197 24T111 111T79 251V497Q79 519 93 533T130 548Q152 548 166 534T181 497V251Q181 195 202 159T259 105T340 87Q383 87 416 104T470 150T490 215H553Q553 153 523 103T440 24T320 -5ZM541 0Q519
0 505 14T490 51V497Q490 520 504 534T541 548Q564 548 578 534T592 497V51Q592 29 578 15T541 0ZM230 615Q208 615 194 626T179 656Q179 682 203 700L315 773Q328 781 341 781Q349 781 355 780T368 773L479 700Q503 682 503 656Q503 638 489 627T453 615Q443 615
436 617T420 626L341 682L262 626Q248 615 230 615Z" />
<glyph unicode="&#xfc;" horiz-adv-x="682" d="M320 -5Q251 -5 197 24T111 111T79 251V497Q79 519 93 533T130 548Q152 548 166 534T181 497V251Q181 195 202 159T259 105T340 87Q383 87 416 104T470 150T490 215H553Q553 153 523 103T440 24T320 -5ZM541 0Q519
0 505 14T490 51V497Q490 520 504 534T541 548Q564 548 578 534T592 497V51Q592 29 578 15T541 0ZM230 631Q205 631 187 648T169 691Q169 715 187 733T230 751Q254 751 272 733T290 691Q290 666 272 649T230 631ZM452 631Q427 631 410 648T392 691Q392 715 409
733T452 751Q476 751 494 733T512 691Q512 666 494 649T452 631Z" />
<glyph unicode="&#xfd;" horiz-adv-x="539" d="M188 -240Q178 -240 164 -234Q120 -214 140 -171L445 518Q465 560 508 542Q553 523 533 479L227 -209Q215 -240 188 -240ZM306 22Q287 14 271 20T244 46L15 481Q5 500 12 517T39 543Q58 551 75 545T101 519L320 84Q330
65 328 48T306 22ZM278 633Q256 633 242 647T227 684Q227 705 239 718L337 816Q352 831 373 831Q396 831 410 816T424 779Q424 769 421 760T410 744L313 647Q299 633 278 633Z" />
<glyph unicode="&#xfe;" horiz-adv-x="703" d="M141 -234Q119 -234 105 -220T90 -183V730Q90 753 104 767T141 781Q164 781 178 767T192 730L180 274H144Q144 343 165 394T221 481T298 533T385 551Q458 551 516 516T607 418T641 273Q641 192 609 130T518 32T385
-4Q323 -4 273 25T192 106V-183Q193 -205 179 -219T141 -234ZM365 86Q417 86 457 110T520 176T543 273Q543 328 520 370T457 437T365 461Q313 461 273 437T211 371T188 273Q188 218 210 176T273 110T365 86Z" />
<glyph unicode="&#xff;" horiz-adv-x="539" d="M188 -240Q178 -240 164 -234Q120 -214 140 -171L445 518Q465 560 508 542Q553 523 533 479L227 -209Q215 -240 188 -240ZM306 22Q287 14 271 20T244 46L15 481Q5 500 12 517T39 543Q58 551 75 545T101 519L320 84Q330
65 328 48T306 22ZM163 631Q138 631 120 648T102 691Q102 715 120 733T163 751Q187 751 205 733T223 691Q223 666 205 649T163 631ZM385 631Q360 631 343 648T325 691Q325 715 342 733T385 751Q409 751 427 733T445 691Q445 666 427 649T385 631Z" />
<glyph unicode="&#x2013;" horiz-adv-x="391" d="M0 223Q-22 223 -36 237T-51 273Q-51 296 -37 310T0 324H392Q413 324 428 310T443 273Q443 251 428 237T392 223H0Z" />
<glyph unicode="&#x2014;" horiz-adv-x="938" d="M0 223Q-22 223 -36 237T-51 273Q-51 296 -37 310T0 324H937Q959 324 973 310T988 273Q988 251 974 237T937 223H0Z" />
<glyph unicode="&#x2018;" horiz-adv-x="188" d="M159 838Q176 838 184 824T185 793Q167 753 163 727T162 681T171 645T176 605Q176 580 158 563T115 545Q84 545 67 571T50 636Q50 662 61 696T88 762T124 816T159 838Z" />
<glyph unicode="&#x2019;" horiz-adv-x="188" d="M29 502Q13 502 5 516T3 547Q21 588 25 614T26 659T17 695T12 735Q12 761 30 778T73 795Q104 795 121 769T138 704Q138 678 127 644T100 578T64 524T29 502Z" />
<glyph unicode="&#x201a;" horiz-adv-x="234" d="M75 -188Q59 -188 51 -174T49 -143Q67 -102 71 -76T72 -31T63 5T58 45Q58 71 76 88T119 105Q150 105 167 79T184 14Q184 -12 173 -46T146 -112T110 -166T75 -188Z" />
<glyph unicode="&#x201c;" horiz-adv-x="292" d="M109 838Q126 838 134 824T135 793Q117 753 113 727T112 681T121 645T126 605Q126 580 108 563T65 545Q34 545 17 571T0 636Q0 662 11 696T38 762T74 816T109 838ZM263 838Q280 838 288 824T289 793Q271 753 267
727T266 681T275 645T280 605Q280 580 262 563T219 545Q188 545 171 571T154 636Q154 662 165 696T192 762T228 816T263 838Z" />
<glyph unicode="&#x201d;" horiz-adv-x="288" d="M223 545Q198 545 180 562T162 605Q162 627 167 644T175 681T175 726T154 793Q146 809 154 823T179 838Q195 838 214 817T249 763T277 696T288 636Q288 597 271 571T223 545ZM73 545Q48 545 30 562T12 605Q12 627
17 644T25 681T25 726T4 793Q-4 809 4 823T29 838Q45 838 64 817T99 763T127 696T138 636Q138 597 121 571T73 545Z" />
<glyph unicode="&#x201e;" horiz-adv-x="319" d="M316 -188Q300 -188 292 -174T290 -143Q308 -102 312 -76T313 -31T304 5T299 45Q299 71 317 88T360 105Q391 105 408 79T425 14Q425 -12 414 -46T387 -112T351 -166T316 -188ZM210 -188Q194 -188 186 -174T184
-143Q202 -102 206 -76T207 -31T198 5T193 45Q193 71 211 88T254 105Q285 105 302 79T319 14Q319 -12 308 -46T281 -112T245 -166T210 -188Z" />
<glyph unicode="&#x2022;" horiz-adv-x="391" d="M198 260Q164 260 136 277T90 322T73 385Q73 420 90 448T136 493T198 510Q232 510 260 493T305 447T323 385Q323 352 307 324T262 278T198 260Z" />
<glyph unicode="&#x2039;" horiz-adv-x="273" d="M199 0Q185 0 173 7T152 31L44 247Q41 254 39 260T37 273Q37 285 43 297L152 515Q167 546 199 546Q222 546 236 532T250 496Q250 482 246 474L146 273L246 72Q250 64 250 51Q250 30 236 15T199 0Z" />
<glyph unicode="&#x203a;" horiz-adv-x="273" d="M88 0Q67 0 53 15T38 51Q38 63 42 72L142 273L42 474Q41 479 39 484T37 496Q37 518 52 532T88 546Q122 546 135 515L244 297Q247 291 248 285T250 273Q250 260 243 247L135 31Q128 15 115 8T88 0Z" />
</font>
</defs>
</svg>
