<?xml version="1.0" standalone="no"?>
<!DOCTYPE svg PUBLIC "-//W3C//DTD SVG 1.1//EN" "http://www.w3.org/Graphics/SVG/1.1/DTD/svg11.dtd">
<svg xmlns="http://www.w3.org/2000/svg">
<defs >
<font id="Comfortaa" horiz-adv-x="641" ><font-face
    font-family="Comfortaa Medium"
    units-per-em="1000"
    panose-1="0 0 0 0 0 0 0 0 0 0"
    ascent="881"
    descent="-234"
    alphabetic="0" />
<glyph unicode=" " horiz-adv-x="293" />
<glyph unicode="!" horiz-adv-x="273" d="M111 179Q94 179 82 192T69 222V738Q69 757 81 769T111 782Q130 782 142 770T154 738V222Q154 205 141 192T111 179ZM111 0Q86 0 68 18T50 61Q50 88 68 106T111 124Q137 124 155 106T173 61Q173 36 155 18T111 0Z" />
<glyph unicode="&quot;" horiz-adv-x="273" d="M200 561Q187 561 178 570T168 593L158 738Q158 757 170 769T200 782Q219 782 231 770T243 738L233 593Q233 580 224 571T200 561ZM80 561Q66 561 57 570T47 593L38 738Q38 756 50 768T80 781Q98 781 110 769T122
738L112 593Q112 580 103 571T80 561Z" />
<glyph unicode="#" horiz-adv-x="722" d="M639 548Q658 548 668 539T677 513Q676 496 662 487T627 477H552L524 315H599Q618 315 627 306T636 282Q636 268 624 256T586 244H508L472 42Q468 23 456 12T425 0Q407 0 398 12T393 44L426 244H245L210 42Q207 25 194
13T163 0Q145 0 136 11T130 44L165 244H85Q68 244 58 253T49 276Q50 295 63 305T97 315H181L208 477H128Q109 477 99 485T89 510Q89 528 102 538T138 548H224L259 742Q262 761 274 773T306 785Q324 785 333 773T339 742L304 548H487L522 742Q524 761 537 773T569
785Q589 785 596 773T601 742L567 548H639ZM443 315L471 477H288L261 315H443Z" />
<glyph unicode="$" horiz-adv-x="610" d="M310 -10Q250 -10 197 7T106 56T48 134Q41 151 48 166T75 185Q89 189 102 182T123 159Q142 118 192 93T310 68Q358 68 396 84T457 130T480 206Q481 264 440 307T309 362Q237 371 184 400T102 474T73 579Q73 641 105 684T194
751T319 775Q376 775 419 759T493 714T545 649Q555 631 553 616T535 591Q522 582 506 587T480 608Q460 645 422 671T319 698Q246 699 201 669T155 577Q155 545 169 516T220 464T327 432Q440 417 502 360T564 208Q564 155 544 115T489 46T407 4T310 -10ZM317 -100Q305
-100 297 -92T289 -71V822Q289 836 297 843T317 851Q328 851 336 844T344 822V-71Q344 -84 336 -92T317 -100Z" />
<glyph unicode="%" horiz-adv-x="859" d="M161 0Q144 0 132 12T119 43Q119 60 129 71L671 764Q679 772 687 777T706 782Q724 782 736 770T748 738Q748 724 740 713L194 14Q180 0 161 0ZM230 388Q176 388 132 415T60 486T33 585Q33 638 60 682T131 754T230 782Q284
782 328 755T400 683T427 584Q427 531 400 487T329 415T230 388ZM231 472Q261 472 286 487T327 528T343 584Q343 616 328 641T286 682T230 698Q200 698 174 683T133 642T117 584Q117 554 132 529T173 488T231 472ZM636 0Q582 0 538 26T467 97T440 196Q440 250 466
294T537 365T636 392Q690 392 734 366T806 296T833 196Q833 142 806 98T735 27T636 0ZM636 84Q667 84 692 99T733 140T749 196Q749 227 734 252T692 293T636 308Q606 308 580 293T539 253T524 196Q524 165 539 140T580 99T636 84Z" />
<glyph unicode="&amp;" horiz-adv-x="723" d="M256 -9Q192 -9 145 14T71 80T45 180Q45 245 87 299T208 416L292 482Q338 519 357 553T377 624Q377 664 350 694T272 724Q228 724 199 696T170 631Q170 602 182 576T221 524L671 74Q685 60 687 48T675 22Q648 -6 620
22L165 478Q132 511 114 549T95 630Q95 677 118 713T182 771T272 793Q324 793 364 771T428 710T452 623Q451 585 437 553T396 490T328 429L246 365Q206 333 179 303T139 242T125 181Q125 126 159 95T258 64Q311 64 354 90T443 165L593 323Q606 337 617 340T643
330Q656 317 657 304T645 275L494 117Q442 59 385 25T256 -9Z" />
<glyph unicode="&apos;" horiz-adv-x="156" d="M80 561Q67 561 58 571T47 594L38 739Q38 756 50 768T80 781Q98 781 110 769T123 739L113 594Q113 581 104 571T80 561Z" />
<glyph unicode="(" horiz-adv-x="261" d="M204 -234Q190 -234 181 -228T163 -206Q105 -85 76 34T47 275Q47 395 76 514T163 753Q176 781 204 781Q221 781 233 769T246 739Q245 726 239 716Q131 496 131 274Q131 164 159 52T240 -169Q246 -181 246 -192Q246 -210
234 -222T204 -234Z" />
<glyph unicode=")" horiz-adv-x="261" d="M58 -234Q40 -234 28 -222T16 -192Q16 -181 21 -169Q75 -60 103 52T131 274Q131 496 22 716Q17 726 16 739Q16 757 28 769T58 781Q86 781 99 753Q157 634 185 515T214 275Q214 154 185 35T99 -206Q90 -221 81 -227T58 -234Z" />
<glyph unicode="*" horiz-adv-x="381" d="M122 490Q103 490 92 503T80 532Q80 542 84 550T97 565L157 613L85 619Q67 621 55 632T43 661Q44 681 57 692T86 704Q92 704 99 702T113 694L170 657L154 725Q153 728 152 731T151 739Q151 757 163 769T194 782Q212 782
224 770T237 739Q237 735 237 732T234 725L218 656L280 696Q291 704 303 704Q318 704 332 692T346 661Q346 644 335 632T304 619L233 613L289 568Q308 553 308 532Q308 515 296 503T261 490Q248 491 240 498T225 518L195 588L164 519Q159 504 148 497T122 490Z"
/>
<glyph unicode="+" horiz-adv-x="547" d="M273 114Q255 114 243 126T231 157V307H81Q63 307 51 319T39 350Q39 368 51 380T81 392H231V542Q231 560 243 572T273 584Q291 584 303 572T315 542V392H465Q483 392 495 380T508 350Q508 332 496 320T465 307H315V157Q315
139 303 127T273 114Z" />
<glyph unicode="," horiz-adv-x="232" d="M81 -165Q70 -165 65 -159T59 -144Q59 -127 68 -114T88 -86T99 -50Q99 -32 92 -21T75 0T58 22T50 51Q50 77 67 92T111 108Q143 108 162 84T182 17Q182 -12 173 -44T149 -104T116 -148T81 -165Z" />
<glyph unicode="-" horiz-adv-x="391" d="M79 231Q62 231 50 243T37 273Q37 292 49 304T79 316H311Q329 316 341 304T353 273Q353 255 341 243T311 231H79Z" />
<glyph unicode="." horiz-adv-x="223" d="M111 -16Q86 -16 68 2T50 45Q50 72 68 90T111 108Q137 108 155 90T173 45Q173 21 156 3T111 -16Z" />
<glyph unicode="/" horiz-adv-x="469" d="M80 -77Q57 -77 45 -59T42 -17L352 757Q357 769 367 775T391 782Q415 782 426 764T430 722L120 -52Q114 -66 103 -71T80 -77Z" />
<glyph unicode="0" horiz-adv-x="573" d="M286 0Q212 0 159 47T78 181T50 392Q50 513 77 601T158 736T286 783Q362 783 415 736T495 600T523 392Q523 270 496 183T415 48T286 0ZM286 86Q338 86 371 125T421 234T437 392Q437 479 421 548T371 657T286 697Q235 697
202 658T153 549T136 392Q136 302 152 234T202 126T286 86Z" />
<glyph unicode="1" horiz-adv-x="383" d="M240 0Q222 0 210 12T197 43V680L106 647Q93 641 82 641Q63 641 51 653T39 683Q39 696 45 707T67 723L221 777Q226 779 231 780T241 782Q260 782 271 770T283 739V43Q283 24 271 12T240 0Z" />
<glyph unicode="2" horiz-adv-x="583" d="M112 0Q94 0 82 12T69 43Q69 60 81 72L378 422Q405 452 420 484T436 546Q436 592 419 627T369 681T295 701Q255 701 222 680T169 624T150 546Q150 529 138 517T108 504Q90 504 78 516T65 546Q65 613 95 666T178 751T295
782Q361 782 411 752T490 669T518 546Q518 513 507 483T477 424T437 371L189 85H492Q510 85 522 72T535 43Q535 24 523 12T492 0H112Z" />
<glyph unicode="3" horiz-adv-x="589" d="M304 -3Q232 -3 176 27T88 111T55 232Q55 251 66 264T95 277Q113 277 124 264T135 232Q135 188 156 152T215 95T300 74Q374 74 417 115T460 225Q460 271 440 307T386 363T308 383Q290 383 278 395T266 426Q266 444 278
456T308 468Q341 468 369 484T415 529T433 590Q433 641 398 674T306 708Q266 708 233 692T182 650T163 589Q163 570 152 558T124 545Q106 545 95 557T84 587Q84 643 113 688T192 759T306 785Q364 785 411 760T485 690T513 590Q513 555 496 524T452 468T394 430Q445
414 479 383T528 311T544 224Q544 159 512 108T425 27T304 -3Z" />
<glyph unicode="4" horiz-adv-x="649" d="M449 0Q433 0 421 12T409 43V184H59Q40 184 29 195T17 222T24 251L416 764Q422 772 430 777T452 782Q469 782 480 770T492 738V261H565Q582 261 594 252T607 222Q607 207 595 196T565 184H492V43Q492 24 480 12T449 0ZM106
231L88 261H409V684L432 658L106 231Z" />
<glyph unicode="5" horiz-adv-x="628" d="M318 0Q246 0 189 33T99 124T65 254Q65 273 77 285T107 297Q125 297 137 285T150 254Q150 206 172 168T232 108T318 85Q366 85 404 107T465 168T487 254Q487 302 465 340T405 401T318 423H146Q127 423 115 435T103 466V739Q103
757 115 769T146 782H492Q509 782 521 769T534 739Q534 721 522 709T492 696H188V509H318Q391 509 448 476T539 385T573 254Q573 182 540 125T449 34T318 0Z" />
<glyph unicode="6" horiz-adv-x="580" d="M300 0Q232 0 179 30T96 114T65 236Q65 304 95 357T179 441T300 472Q368 472 421 442T504 358T535 236Q535 167 505 114T421 31T300 0ZM299 78Q344 78 379 98T434 154T454 236Q454 282 434 317T379 374T299 395Q255 395
221 374T166 318T146 236Q146 190 166 154T220 98T299 78ZM95 357L338 758Q352 781 376 781Q393 781 405 771T419 746T413 716L255 457L95 357Z" />
<glyph unicode="7" horiz-adv-x="562" d="M157 0Q140 0 127 12T114 43Q114 49 116 55T123 70L417 696H86Q67 696 55 708T42 739Q42 757 54 769T86 782H485Q502 782 514 770T527 739Q527 733 525 728T520 716L196 24Q183 0 157 0Z" />
<glyph unicode="8" horiz-adv-x="589" d="M295 -2Q228 -2 176 29T93 115T62 237Q62 303 92 355T175 437T295 467Q362 467 414 437T497 355T527 237Q527 169 497 115T414 30T295 -2ZM295 74Q337 74 370 96T423 154T442 237Q443 281 424 316T372 371T295 391Q253
391 220 371T167 316T147 237Q147 191 166 155T218 96T295 74ZM295 402Q240 402 196 427T126 494T101 592Q101 646 126 689T195 758T295 784Q351 785 395 760T464 691T489 592Q489 537 463 495T394 427T295 402ZM295 474Q327 474 352 490T392 533T407 594Q408 626
394 651T354 691T295 706Q247 706 215 674T182 594Q181 543 213 509T295 474Z" />
<glyph unicode="9" horiz-adv-x="580" d="M279 782Q348 782 401 752T484 668T515 546Q515 479 485 425T401 341T279 310Q211 310 159 340T76 425T45 546Q45 615 75 668T158 751T279 782ZM280 704Q235 704 201 684T146 628T126 546Q126 501 146 465T200 408T280
387Q324 387 359 408T414 465T434 546Q434 592 414 628T359 684T280 704ZM484 425L242 24Q227 1 204 1Q186 1 175 11T160 36T166 67L323 325L484 425Z" />
<glyph unicode=":" horiz-adv-x="195" d="M347 419Q321 419 303 437T285 481Q285 507 303 525T347 543Q372 543 389 525T407 481Q407 455 390 437T347 419ZM351 -16Q326 -16 308 2T290 45Q290 72 308 90T351 108Q377 108 395 90T413 45Q413 21 396 3T351 -16Z" />
<glyph unicode=";" horiz-adv-x="198" d="M81 -165Q70 -165 65 -159T59 -144Q59 -127 68 -114T88 -86T99 -50Q99 -32 92 -21T75 0T58 22T50 51Q50 77 67 92T111 108Q143 108 162 84T182 17Q182 -12 173 -44T149 -104T116 -148T81 -165ZM350 419Q324 419 306 437T288
481Q288 507 306 525T350 543Q375 543 392 525T410 481Q410 455 393 437T350 419Z" />
<glyph unicode="&lt;" horiz-adv-x="547" d="M444 82L62 312Q39 326 39 351Q39 372 62 389L444 619Q466 630 487 620T508 585Q508 560 487 547L125 331V374L487 157Q508 143 508 119Q508 102 498 91T473 77T444 82Z" />
<glyph unicode="=" horiz-adv-x="508" d="M80 423Q63 423 51 435T39 466Q39 484 51 496T80 509H428Q445 509 457 496T470 466Q470 448 458 436T428 423H80ZM80 192Q63 192 51 204T39 235Q39 253 51 265T80 277H428Q445 277 457 265T470 235Q470 217 458 205T428
193L80 192Z" />
<glyph unicode="&gt;" horiz-adv-x="547" d="M103 82Q89 74 75 77T50 91T39 119Q39 143 60 157L423 374V331L60 547Q39 560 39 585Q39 610 60 620T103 619L485 389Q508 372 508 351Q508 326 485 312L103 82Z" />
<glyph unicode="?" horiz-adv-x="547" d="M273 179Q255 179 243 191T231 223Q231 263 250 309T307 389Q337 416 363 442T407 500T424 581Q424 618 406 649T356 698T279 717Q229 717 195 697T142 643T123 562Q123 544 112 532T81 520Q63 520 51 532T39 562Q39 631
69 684T153 767T279 797Q345 797 396 769T478 692T508 578Q508 522 489 483T437 411T365 343Q336 317 326 283T316 223Q316 204 304 192T273 179ZM273 0Q247 0 230 18T212 61Q212 88 230 106T273 124Q299 124 317 106T336 61Q336 36 318 18T273 0Z" />
<glyph unicode="@" horiz-adv-x="1094" d="M548 -233Q436 -233 344 -196T183 -91T78 69T41 274Q41 385 78 478T183 639T343 744T548 781Q659 781 752 744T913 639T1018 478T1055 274Q1055 181 1030 111T960 0T857 -41Q805 -41 772 -11T738 69V110Q719 77 687 52T618
12T542 -2Q463 -2 402 33T307 130T273 274Q273 354 308 416T405 514T548 550Q628 550 690 514T787 416T823 274V105Q823 76 833 61T864 45Q893 45 917 74T955 155T969 274Q969 366 938 443T851 576T717 664T548 695Q455 695 378 664T245 577T158 443T127 274Q127
181 157 104T244 -29T378 -116T548 -147Q590 -147 639 -138T721 -112Q749 -98 767 -108T785 -148Q785 -170 755 -189T671 -221T548 -233ZM548 85Q603 85 645 109T712 175T737 274Q737 329 713 371T646 438T548 463Q492 463 450 439T383 372T359 274Q359 218 383
176T449 109T548 85Z" />
<glyph unicode="A" horiz-adv-x="703" d="M61 0Q36 0 25 20T22 62L312 752Q325 781 354 781Q383 781 394 752L685 61Q695 39 683 20T647 0Q634 0 623 7T606 26L340 678H370L100 26Q95 13 84 7T61 0ZM123 182L156 255H557L591 182H123Z" />
<glyph unicode="B" horiz-adv-x="704" d="M146 0Q127 0 114 12T100 43V738Q100 757 112 769T143 781H385Q447 781 496 755T575 685T604 581Q604 528 576 487T501 423Q567 406 608 358T649 233Q649 164 618 112T531 30T403 0H146ZM186 81H403Q450 81 486 99T544
151T565 233Q565 277 544 309T487 358T403 375H186V81ZM186 457H385Q444 457 482 489T520 581Q520 640 482 670T385 700H186V457Z" />
<glyph unicode="C" horiz-adv-x="771" d="M451 -10Q370 -10 300 21T176 107T93 234T63 391Q63 474 92 546T175 673T298 759T451 791Q524 791 582 771T695 704Q704 697 706 689T707 672T699 658Q697 647 688 641T665 634T639 644Q601 678 557 694T451 711Q388 711
333 686T235 616T170 514T146 391Q146 324 169 266T235 164T332 95T451 70Q504 70 552 88T644 139Q658 150 672 148T697 136T708 107Q708 98 705 91T696 76Q644 31 582 11T451 -10Z" />
<glyph unicode="D" horiz-adv-x="774" d="M143 0Q124 0 112 12T100 43V738Q100 757 112 769T143 781H323Q409 781 480 753T604 672T684 548T712 391Q712 305 684 234T604 110T481 29T323 0H143ZM186 77H323Q413 77 481 117T589 229T628 391Q628 482 589 553T482
664T323 704H186V77Z" />
<glyph unicode="E" horiz-adv-x="694" d="M143 0Q124 0 112 12T100 43V738Q100 757 112 769T143 781H607Q625 781 637 770T649 740Q649 723 637 712T607 700H186V434H491Q510 434 522 422T534 393Q534 375 522 364T491 352H186V81H607Q625 81 637 70T649 41Q649
23 637 12T607 0H143Z" />
<glyph unicode="F" horiz-adv-x="625" d="M81 0Q63 0 51 12T38 43V738Q38 757 50 769T81 781H544Q563 781 575 770T587 740Q587 723 575 712T544 700H124V434H429Q448 434 459 422T471 393Q471 375 460 364T429 352H124V43Q124 25 112 13T81 0Z" />
<glyph unicode="G" horiz-adv-x="771" d="M451 -10Q370 -10 300 21T176 107T93 234T63 391Q63 474 92 546T175 673T298 759T451 791Q524 791 582 771T695 704Q704 697 706 689T707 672T699 658Q697 647 688 641T665 634T639 644Q601 678 557 694T451 711Q388 711
333 686T235 616T170 514T146 391Q146 324 169 266T235 164T332 95T451 70Q504 70 552 88T644 139Q658 150 672 148T697 136T708 107Q708 98 706 91T696 76Q644 30 582 10T451 -10ZM708 107L625 124V319H474Q456 319 444 329T431 357Q431 373 443 384T474 395H666Q684
395 696 383T708 352V107Z" />
<glyph unicode="H" horiz-adv-x="852" d="M143 0Q124 0 112 12T100 43V738Q100 757 112 769T143 781Q162 781 174 769T186 738V434H667V738Q667 757 679 769T710 781Q728 781 740 769T752 738V43Q752 24 740 12T710 0Q691 0 679 12T667 43V357H186V43Q186 24 174
12T143 0Z" />
<glyph unicode="I" horiz-adv-x="286" d="M143 0Q124 0 112 12T100 43V738Q100 757 112 769T143 781Q162 781 174 769T186 738V43Q186 24 174 12T143 0Z" />
<glyph unicode="J" horiz-adv-x="618" d="M282 -10Q214 -10 161 21T76 105T45 226Q45 245 57 257T88 269Q107 269 119 257T131 226Q131 181 151 146T205 91T282 70Q324 70 358 90T412 146T432 226V738Q432 757 444 769T474 781Q493 781 505 769T518 738V226Q518
159 487 106T403 21T282 -10Z" />
<glyph unicode="K" horiz-adv-x="659" d="M143 0Q125 0 113 12T100 43V738Q100 756 112 768T143 781Q161 781 173 769T186 738V410L541 765Q550 774 558 777T575 781Q595 781 605 769T614 740T599 708L331 439L602 68Q612 54 611 38T599 11T572 0Q548 0 536 19L270
379L186 294V43Q186 25 174 13T143 0Z" />
<glyph unicode="L" horiz-adv-x="636" d="M143 0Q125 0 113 12T100 43V738Q100 756 112 768T143 781Q161 781 173 769T186 738V83H568Q586 83 598 71T611 42Q611 24 599 12T568 0H143Z" />
<glyph unicode="M" horiz-adv-x="981" d="M143 0Q125 0 113 12T100 43V738Q100 757 112 769T143 781Q169 781 181 759L511 102H478L801 759Q814 781 839 781Q857 781 869 769T881 738V43Q881 25 869 13T839 0Q820 0 808 12T795 43V624L813 625L528 43Q516 22 491
22Q464 22 451 48L166 619L186 624V43Q186 25 174 13T143 0Z" />
<glyph unicode="N" horiz-adv-x="827" d="M143 0Q124 0 112 12T100 43V738Q100 757 112 769T143 781Q163 781 176 765L641 152V738Q641 757 653 769T684 781Q702 781 714 769T727 738V43Q727 24 715 12T684 0Q675 0 666 3T651 15L186 628V43Q186 24 174 12T143 0Z" />
<glyph unicode="O" horiz-adv-x="921" d="M461 -10Q374 -10 301 20T175 103T92 230T63 391Q63 478 92 551T174 677T301 761T461 791Q548 791 620 761T747 678T830 551T859 391Q859 304 830 231T747 104T621 20T461 -10ZM461 70Q529 70 586 94T686 162T752 264T775
391Q775 459 752 517T687 619T587 687T461 711Q393 711 335 687T235 620T170 518T146 391Q146 323 169 265T235 163T335 95T461 70Z" />
<glyph unicode="P" horiz-adv-x="615" d="M143 0Q124 0 112 12T100 43V738Q100 757 112 769T143 781H343Q417 781 474 749T564 659T596 525Q596 452 564 396T475 307T343 274H186V43Q186 24 174 12T143 0ZM186 356H343Q392 356 430 377T491 437T513 525Q513 577
492 616T431 677T343 700H186V356Z" />
<glyph unicode="Q" horiz-adv-x="921" d="M749 13L535 226Q521 240 521 256T535 286Q547 298 563 298T593 286L808 71Q820 58 820 42T808 13Q795 0 779 0T749 13ZM461 -10Q374 -10 301 20T175 103T92 230T63 391Q63 478 92 551T174 677T301 761T461 791Q548 791
620 761T747 678T830 551T859 391Q859 304 830 231T747 104T621 20T461 -10ZM461 70Q529 70 586 94T686 162T752 264T775 391Q775 459 752 517T687 619T587 687T461 711Q393 711 335 687T235 620T170 518T146 391Q146 323 169 265T235 163T335 95T461 70Z" />
<glyph unicode="R" horiz-adv-x="622" d="M143 0Q124 0 112 12T100 43V738Q100 757 112 769T143 781H328Q401 781 458 750T548 665T581 538Q581 470 549 417T459 334T328 304H186V43Q186 24 174 12T143 0ZM560 0Q547 0 538 5T523 22L334 323L419 345L594 66Q610
41 600 21T560 0ZM186 386H328Q377 386 415 405T476 459T498 538Q498 586 476 622T416 679T328 700H186V386Z" />
<glyph unicode="S" horiz-adv-x="670" d="M342 -10Q278 -10 223 9T126 62T65 143Q56 160 64 175T93 195Q108 199 123 192T145 168Q160 140 188 118T256 83T342 70Q394 70 435 87T500 136T524 214Q524 272 480 315T340 370Q221 384 154 443T86 589Q86 651 120 696T213
766T347 791Q404 791 449 774T527 727T583 662Q595 644 592 628T573 602Q557 594 540 599T513 621Q498 645 476 665T421 698T345 711Q268 711 219 679T170 584Q170 552 187 524T246 475T360 445Q484 429 546 370T608 215Q608 160 588 118T530 48T445 5T342 -10Z"
/>
<glyph unicode="T" horiz-adv-x="657" d="M328 0Q310 0 298 12T285 43V781H371V43Q371 25 359 13T328 0ZM55 702Q37 702 26 713T15 741Q15 759 26 770T55 781H602Q620 781 631 770T642 741Q642 725 631 714T602 702H55Z" />
<glyph unicode="U" horiz-adv-x="827" d="M416 -16Q323 -16 252 19T140 116T100 259V738Q100 757 112 769T143 781Q162 781 174 769T186 738V259Q186 202 215 158T296 89T416 64Q482 64 532 89T612 158T641 259V738Q641 757 653 769T684 781Q704 781 715 769T727
738V259Q727 179 687 117T577 19T416 -16Z" />
<glyph unicode="V" horiz-adv-x="722" d="M362 0Q335 0 322 27L27 715Q15 745 25 763T61 781Q89 781 100 754L371 107H352L623 753Q630 769 639 775T664 781Q690 781 699 763T698 720L400 27Q394 13 385 7T362 0Z" />
<glyph unicode="W" horiz-adv-x="938" d="M267 0Q251 0 240 9T224 35L20 720Q12 747 22 764T55 781Q68 781 79 774T97 748L279 115H256L427 735Q430 747 441 755T468 763Q481 763 493 756T509 734L681 115H659L842 753Q849 781 884 781Q907 781 915 763T916 720L713
36Q707 19 696 10T669 0Q654 0 643 10T626 35L456 666H480L310 36Q305 20 294 10T267 0Z" />
<glyph unicode="X" horiz-adv-x="710" d="M88 0Q69 0 59 11T48 39T58 69L316 419L355 452L588 767Q600 781 620 781Q637 781 647 770T659 743T651 714L406 383L369 352L118 13Q106 0 88 0ZM623 0Q614 0 606 4T590 16L346 354L313 379L73 714Q63 727 64 743T76
770T104 781Q125 781 136 767L367 447L398 424L654 69Q664 56 664 40T653 12T623 0Z" />
<glyph unicode="Y" horiz-adv-x="655" d="M327 0Q310 0 297 12T284 43V288L14 714Q3 731 5 746T19 771T47 781Q61 781 69 775T84 759L349 334H308L574 759Q581 770 590 775T613 781Q628 781 638 771T650 745T642 714L370 288V43Q370 25 358 13T327 0Z" />
<glyph unicode="Z" horiz-adv-x="730" d="M94 0Q75 0 64 12T51 40T59 69L568 704H99Q79 704 69 714T58 741Q58 758 70 769T101 781H635Q654 781 665 769T678 741T670 714L159 77H635Q653 77 665 66T677 39Q677 22 665 11T635 0H94Z" />
<glyph unicode="[" horiz-adv-x="308" d="M108 -234Q89 -234 77 -222T65 -191V739Q65 757 77 769T108 782H264Q283 782 295 770T308 739Q308 720 296 708T264 695H151V-147H264Q283 -147 295 -159T308 -191Q308 -210 296 -222T264 -234H108Z" />
<glyph unicode="\" horiz-adv-x="469" d="M391 -80Q379 -80 368 -74T351 -54L39 720Q36 728 36 738Q36 757 48 769T80 782Q92 782 103 776T119 757L430 -19Q434 -28 434 -37Q434 -55 422 -67T391 -80Z" />
<glyph unicode="]" horiz-adv-x="308" d="M44 -234Q25 -234 13 -222T0 -191Q0 -172 12 -160T44 -147H157V695H44Q25 695 13 707T0 739Q0 757 12 769T44 782H200Q218 782 230 770T243 739V-191Q243 -210 231 -222T200 -234H44Z" />
<glyph unicode="^" horiz-adv-x="469" d="M84 466Q65 466 53 478T40 508Q40 514 42 520T47 530L202 764Q216 782 237 782Q248 782 256 777T272 764L427 530Q434 520 434 508Q434 490 422 478T391 466Q370 466 357 482L237 661L117 482Q104 466 84 466Z" />
<glyph unicode="_" horiz-adv-x="469" d="M3 -85Q-15 -85 -27 -73T-40 -43Q-40 -25 -28 -13T3 0H479Q496 0 508 -12T521 -43Q521 -60 509 -72T479 -85H3Z" />
<glyph unicode="`" horiz-adv-x="273" d="M189 589Q171 589 160 601L51 709Q41 719 41 738Q41 757 52 769T82 782Q100 782 113 769L220 660Q231 650 231 633Q231 614 219 602T189 589Z" />
<glyph unicode="a" horiz-adv-x="676" d="M327 -5Q251 -5 191 31T96 131T61 273Q61 353 97 416T197 515T339 552Q417 552 479 516T578 416T616 273L582 256Q582 182 549 123T458 30T327 -5ZM339 71Q395 71 438 97T507 170T533 273Q533 331 508 376T439 449T339
476Q284 476 240 449T169 377T143 273Q143 216 169 170T239 98T339 71ZM573 0Q555 0 543 11T530 42V207L549 294L616 273V42Q616 23 604 12T573 0Z" />
<glyph unicode="b" horiz-adv-x="706" d="M366 -5Q288 -5 226 31T128 130T90 271V738Q90 758 101 769T133 781Q152 781 163 770T175 738V452Q208 497 261 524T379 552Q455 552 515 516T609 416T644 274Q644 194 608 131T509 32T366 -5ZM366 71Q422 71 466 98T536
170T562 274Q562 331 537 377T467 449T366 476Q312 476 268 450T198 377T173 274Q173 216 198 171T267 98T366 71Z" />
<glyph unicode="c" horiz-adv-x="597" d="M335 -5Q256 -5 194 31T97 131T61 273Q61 353 95 416T189 515T327 552Q387 552 438 529T528 458Q540 444 537 430T518 404Q506 396 492 398T465 414Q410 476 327 476Q272 476 231 450T166 379T143 273Q143 215 167 170T235
98T335 71Q373 71 403 81T458 112Q472 123 486 124T512 116Q525 104 527 89T517 62Q444 -5 335 -5Z" />
<glyph unicode="d" horiz-adv-x="706" d="M339 -5Q260 -5 197 31T98 131T61 274Q61 353 96 416T191 515T327 552Q392 552 444 525T530 452V738Q530 758 542 769T573 781Q592 781 604 770T616 738V271Q614 193 578 131T479 32T339 -5ZM339 71Q395 71 438 98T507
170T533 274Q533 331 508 377T439 449T339 476Q284 476 240 450T169 377T143 274Q143 216 169 171T239 98T339 71Z" />
<glyph unicode="e" horiz-adv-x="616" d="M341 -5Q259 -5 196 30T97 129T61 273Q61 355 95 417T188 516T326 552Q402 552 458 518T545 422T576 283Q576 266 565 256T537 245H119V314H542L499 284Q500 339 479 383T419 452T326 477Q269 477 227 451T162 379T139
273Q139 214 165 168T236 96T341 70Q375 70 410 82T467 112Q479 121 494 121T520 113Q535 100 535 85T522 59Q489 31 438 13T341 -5Z" />
<glyph unicode="f" horiz-adv-x="366" d="M155 0Q139 0 127 11T115 43V545Q115 616 140 669T213 751T329 781Q348 781 360 770T372 743Q372 726 360 715T329 704Q287 704 258 685T214 631T199 551V43Q199 23 188 12T155 0ZM57 454Q39 454 29 464T18 490Q18 506
28 516T57 527H314Q331 527 341 517T352 490Q352 475 342 465T314 454H57Z" />
<glyph unicode="g" horiz-adv-x="676" d="M327 -5Q249 -5 189 30T95 129T61 273Q61 355 97 418T195 516T339 552Q419 552 481 517T579 418T616 273L566 256Q566 180 536 121T451 29T327 -5ZM339 -219Q263 -219 203 -190T101 -109Q90 -96 92 -81T108 -56Q123 -46
140 -49T167 -66Q195 -101 239 -122T341 -143Q394 -143 438 -118T507 -44T533 70V218L563 286L616 273V65Q616 -15 580 -79T482 -181T339 -219ZM339 71Q396 71 439 97T508 168T533 273Q533 332 508 378T440 450T339 476Q282 476 238 450T169 378T143 273Q143 214
168 169T238 97T339 71Z" />
<glyph unicode="h" horiz-adv-x="679" d="M133 216Q113 216 102 228T90 258V738Q90 758 101 769T133 781Q152 781 163 770T175 738V258Q175 240 164 228T133 216ZM557 0Q538 0 526 12T514 42V297Q514 358 492 396T430 454T341 474Q294 474 257 456T197 406T175
333H117Q119 396 150 445T235 524T353 553Q423 553 478 524T566 437T599 297V42Q599 24 587 12T557 0ZM133 0Q113 0 102 11T90 42V504Q90 524 101 535T133 547Q152 547 163 536T175 504V42Q175 23 164 12T133 0Z" />
<glyph unicode="i" horiz-adv-x="293" d="M147 0Q128 0 116 11T104 43V504Q104 524 116 535T147 547Q166 547 177 536T189 504V43Q189 23 178 12T147 0ZM402 646Q378 646 361 663T344 705Q344 730 361 746T402 762Q425 762 442 746T460 705Q460 681 443 664T402 646Z" />
<glyph unicode="j" horiz-adv-x="286" d="M-53 -234Q-72 -234 -84 -223T-96 -191Q-96 -172 -84 -161T-53 -149Q-9 -149 24 -130T77 -77T97 1V504Q97 524 108 535T139 547Q158 547 169 536T181 504V1Q181 -68 151 -121T68 -204T-53 -234ZM394 646Q370 646 353 663T336
705Q336 730 353 746T394 762Q417 762 434 746T452 705Q452 681 435 664T394 646Z" />
<glyph unicode="k" horiz-adv-x="571" d="M163 188L112 244L443 543Q456 555 470 554T497 540Q509 527 508 513T494 486L163 188ZM131 0Q113 0 102 11T90 41V740Q90 758 101 769T131 781Q150 781 161 770T173 740V41Q173 23 162 12T131 0ZM497 5Q483 -7 468 -6T441
10L224 277L283 331L503 60Q514 47 513 32T497 5Z" />
<glyph unicode="l" horiz-adv-x="288" d="M212 0Q170 0 138 22T88 85T70 177V739Q70 758 81 769T112 781Q130 781 141 770T153 739V177Q153 136 169 110T212 83H237Q253 83 263 72T273 42Q273 23 259 12T221 0H212Z" />
<glyph unicode="m" horiz-adv-x="944" d="M823 0Q804 0 792 11T780 42V329Q780 398 745 436T654 474Q595 474 558 434T520 329H447Q448 396 476 446T553 525T666 553Q724 553 769 526T839 449T865 329V42Q865 23 853 12T823 0ZM133 0Q113 0 102 11T90 42V504Q90
523 101 535T133 547Q152 547 163 535T175 504V42Q175 23 164 12T133 0ZM478 0Q460 0 448 11T436 42V329Q436 398 401 436T310 474Q251 474 213 435T175 333H117Q119 398 145 447T217 525T322 553Q380 553 425 526T495 449T520 329V42Q520 23 509 12T478 0Z" />
<glyph unicode="n" horiz-adv-x="679" d="M557 0Q538 0 526 12T514 42V297Q514 358 492 396T430 454T341 474Q294 474 257 456T197 406T175 333H117Q119 396 150 445T235 524T353 553Q423 553 478 524T566 437T599 297V42Q599 24 587 12T557 0ZM133 0Q113 0 102
11T90 42V504Q90 524 101 535T133 547Q152 547 163 536T175 504V42Q175 23 164 12T133 0Z" />
<glyph unicode="o" horiz-adv-x="676" d="M339 -5Q258 -5 196 31T97 130T61 273Q61 354 97 417T195 516T339 552Q419 552 481 516T579 417T616 273Q616 193 580 130T482 31T339 -5ZM339 71Q395 71 439 97T508 169T533 273Q533 331 508 377T439 449T339 476Q283
476 239 450T169 377T143 273Q143 215 168 170T238 98T339 71Z" />
<glyph unicode="p" horiz-adv-x="706" d="M133 -234Q113 -234 102 -223T90 -191V276Q91 354 127 416T226 515T366 552Q446 552 508 516T607 416T644 273Q644 194 610 131T515 32T379 -5Q314 -5 261 22T175 95V-191Q175 -211 163 -222T133 -234ZM366 71Q422 71
466 97T536 170T562 273Q562 331 537 376T467 449T366 476Q312 476 268 449T198 377T173 273Q173 216 198 170T267 98T366 71Z" />
<glyph unicode="q" horiz-adv-x="706" d="M573 -234Q555 -234 543 -223T530 -191V95Q497 50 445 23T327 -5Q251 -5 191 31T96 131T61 273Q61 353 97 416T197 515T339 552Q417 552 479 516T577 417T616 276V-191Q616 -211 604 -222T573 -234ZM339 71Q395 71 438
97T507 170T533 273Q533 331 508 376T439 449T339 476Q284 476 240 449T169 377T143 273Q143 216 169 170T239 98T339 71Z" />
<glyph unicode="r" horiz-adv-x="467" d="M127 339Q129 400 158 448T236 525T343 553Q394 553 420 538T440 497Q437 483 428 477T406 471T377 473Q318 480 273 466T200 418T173 339H127ZM132 0Q112 0 101 11T90 42V505Q90 525 101 536T132 547Q152 547 162 536T173
505V42Q173 22 163 11T132 0Z" />
<glyph unicode="s" horiz-adv-x="540" d="M283 -5Q221 -5 163 15T69 74Q57 87 59 104T75 132Q91 144 107 142T135 128Q157 102 196 87T282 71Q351 71 383 94T417 153Q417 187 385 210T274 246Q173 263 127 303T80 399Q80 450 108 484T181 535T280 552Q347 552
396 530T475 469Q486 455 485 440T468 415Q455 406 438 409T408 425Q383 452 351 464T278 477Q226 477 194 457T162 404Q162 382 173 366T214 338T299 315Q374 302 417 279T479 224T498 155Q498 108 472 73T397 16T283 -5Z" />
<glyph unicode="t" horiz-adv-x="402" d="M299 0Q247 0 206 25T142 94T118 193V679Q118 697 129 709T160 721Q178 721 190 709T202 679V193Q202 146 229 115T299 84H329Q345 84 356 72T367 42Q367 23 354 12T319 0H299ZM59 454Q42 454 31 464T20 490Q20 506 31
516T59 527H306Q323 527 334 517T345 490Q345 475 334 465T306 454H59Z" />
<glyph unicode="u" horiz-adv-x="679" d="M326 -6Q255 -6 200 23T112 110T80 250V505Q80 523 92 535T122 547Q140 547 152 535T164 505V250Q164 189 187 151T249 93T337 73Q384 73 422 91T482 141T504 214H561Q559 151 528 102T444 23T326 -6ZM546 0Q527 0 516
11T504 43V505Q504 524 515 535T546 547Q565 547 577 536T589 505V43Q589 23 577 12T546 0Z" />
<glyph unicode="v" horiz-adv-x="551" d="M276 0Q250 0 237 28L18 492Q11 506 16 520T38 542Q53 550 67 545T90 525L298 74H255L461 525Q467 540 483 545T514 543Q530 535 535 521T534 493L317 28Q304 0 276 0Z" />
<glyph unicode="w" horiz-adv-x="736" d="M215 0Q201 0 190 8T174 27L21 488Q14 515 21 531T52 547Q67 547 78 539T95 513L230 97H204L330 515Q334 529 344 538T371 547Q388 547 398 538T413 515L528 112H511L642 513Q653 547 683 547Q707 547 716 530T716 488L562
27Q558 16 548 8T523 0Q509 0 498 8T482 27L363 434H375L254 27Q250 15 239 8T215 0Z" />
<glyph unicode="x" horiz-adv-x="551" d="M473 0Q461 0 453 3T437 17L264 234L232 263L58 480Q46 494 46 509T56 535T84 547Q103 547 116 533L285 322L311 299L498 65Q512 49 511 34T498 9T473 0ZM81 0Q64 0 54 11T43 37T55 67L234 291L281 228L111 13Q100 0 81
0ZM319 259L264 312L433 529Q440 539 449 543T467 547Q486 547 495 536T505 508T493 478L319 259Z" />
<glyph unicode="y" horiz-adv-x="545" d="M185 -239Q177 -239 165 -234Q128 -217 145 -181L462 524Q479 559 515 543Q552 528 536 491L217 -213Q207 -239 185 -239ZM298 19Q282 11 268 16T245 38L21 491Q13 508 18 522T40 544Q57 551 71 546T93 525L312 71Q320
55 318 41T298 19Z" />
<glyph unicode="z" horiz-adv-x="546" d="M137 24L73 66L435 531L491 483L137 24ZM104 0Q65 0 65 39Q65 77 104 77H465Q504 77 504 39Q504 0 465 0H104ZM98 470Q59 470 59 508Q59 547 98 547H460Q498 547 498 508Q498 470 460 470H98Z" />
<glyph unicode="{" horiz-adv-x="382" d="M322 -234Q164 -234 164 -76V158Q164 231 90 231Q73 231 61 243T48 273Q48 292 60 304T90 316Q164 316 164 389V623Q164 782 322 782Q340 782 351 770T363 738Q363 720 352 708T322 696Q248 696 248 623V389Q248 352 239
324T211 273Q248 231 248 158V-76Q248 -149 322 -149Q340 -149 351 -161T363 -191Q363 -210 352 -222T322 -234Z" />
<glyph unicode="|" horiz-adv-x="391" d="M196 -234Q178 -234 166 -222T153 -191V739Q153 757 165 769T196 782Q215 782 227 770T239 739V-191Q239 -210 227 -222T196 -234Z" />
<glyph unicode="}" horiz-adv-x="382" d="M60 -234Q42 -234 31 -222T19 -191Q19 -173 30 -161T60 -149Q134 -149 134 -76V158Q134 231 171 273Q152 295 143 323T134 389V623Q134 696 60 696Q42 696 31 708T19 738Q19 757 30 769T60 782Q218 782 218 623V389Q218
316 292 316Q309 316 321 304T334 273Q334 255 322 243T292 231Q218 231 218 158V-76Q218 -234 60 -234Z" />
<glyph unicode="~" horiz-adv-x="469" d="M329 305Q297 305 273 316T231 338Q209 351 195 356T169 361Q152 361 137 354T108 328Q98 314 84 309T54 312Q40 319 38 335T45 365Q69 397 102 414T172 432Q204 432 227 421T267 400Q287 388 300 383T328 377Q343 377
354 382T374 396Q386 408 398 412T425 408Q439 401 441 385T433 354Q394 305 329 305Z" />
<glyph unicode="&#xa0;" horiz-adv-x="293" />
<glyph unicode="&#xa1;" horiz-adv-x="273" d="M161 369Q178 369 191 356T204 326V-190Q204 -209 192 -221T161 -234Q144 -234 132 -222T119 -190V326Q119 343 131 356T161 369ZM161 548Q187 548 205 530T223 487Q223 461 205 443T162 424Q136 424 118 442T100
487Q100 512 118 530T161 548Z" />
<glyph unicode="&#xa2;" horiz-adv-x="597" d="M183 -97Q168 -97 159 -85T157 -54L414 629Q422 650 443 650Q460 650 467 638T470 611L213 -74Q204 -97 183 -97ZM335 -5Q256 -5 194 31T97 131T61 273Q61 353 95 416T189 515T327 552Q387 552 438 529T528 458Q540
444 537 430T518 404Q506 396 492 398T465 414Q410 476 327 476Q272 476 231 450T166 379T143 273Q143 215 167 170T235 98T335 71Q373 71 403 81T458 112Q472 123 486 124T512 116Q525 104 527 89T517 62Q444 -5 335 -5Z" />
<glyph unicode="&#xa3;" horiz-adv-x="508" d="M121 0Q101 0 90 12T78 43Q78 52 80 60Q108 124 121 186T135 308H81Q63 308 51 321T39 352Q39 370 51 382T81 394H127Q111 438 100 469T84 527T78 584Q78 638 104 683T176 754T276 781Q327 781 369 762T442 705Q450
697 455 687T461 667Q461 648 449 636T418 624Q400 624 391 635Q366 664 341 681T278 699Q244 699 219 683T179 641T164 580Q164 554 170 527T188 467T215 394H354Q372 394 384 382T396 352Q396 334 384 321T354 308H221Q221 255 212 200T182 86H415Q423 100 430
114T444 142Q450 152 459 157T481 163Q499 163 511 151T524 120Q524 109 519 100L482 25Q475 13 465 7T442 0H121Z" />
<glyph unicode="&#xa4;" horiz-adv-x="511" d="M94 154Q73 154 59 168T45 204Q45 224 60 238L97 273Q73 316 73 363T96 454L60 491Q45 505 45 526Q45 547 59 561T94 575Q114 575 129 563L165 524Q209 549 257 548T344 525L381 562Q390 567 397 571T415 575Q437
575 451 561T466 526Q466 504 451 490L415 457Q438 415 438 367T416 277L451 239Q466 224 466 204Q466 183 452 169T417 154Q407 154 399 157T382 167L347 205Q304 182 258 182T168 203L129 168Q114 154 94 154ZM256 269Q281 269 302 282T337 317T350 364Q350 391
337 413T303 448T256 461Q229 461 208 448T173 412T160 364Q160 340 173 318T207 283T256 269Z" />
<glyph unicode="&#xa5;" horiz-adv-x="655" d="M168 288Q149 288 138 298T126 326Q126 343 137 353T168 363H488Q506 363 517 353T529 326Q529 308 518 298T488 288H168ZM168 157Q149 157 138 167T126 194Q126 212 137 222T168 232H488Q506 232 517 222T529 194Q529
177 518 167T488 157H168ZM327 0Q310 0 297 12T284 43V288L14 714Q3 731 5 746T19 771T47 781Q61 781 69 775T84 759L349 334H308L574 759Q581 770 590 775T613 781Q628 781 638 771T650 745T642 714L370 288V43Q370 25 358 13T327 0Z" />
<glyph unicode="&#xa6;" horiz-adv-x="234" d="M119 423Q100 423 88 435T76 466V811Q76 830 88 842T119 855Q136 855 148 843T161 811V466Q161 448 149 436T119 423ZM119 -234Q100 -234 88 -222T76 -191V152Q76 170 88 182T119 194Q136 194 148 182T161 152V-191Q161
-210 149 -222T119 -234Z" />
<glyph unicode="&#xa7;" horiz-adv-x="469" d="M238 -234Q183 -234 138 -207T65 -135T38 -35Q38 -17 51 -5T82 8Q100 8 112 -4T124 -35Q124 -66 140 -91T182 -132T238 -148Q267 -148 293 -133T335 -92T351 -35Q351 -6 335 19T294 60T238 76Q183 76 138 102T66
174T38 273Q38 318 57 357T114 429Q74 462 56 500T38 584Q38 638 65 682T137 754T238 781Q292 781 337 754T410 683T437 584Q437 566 425 553T394 540Q375 540 363 553T351 584Q351 614 335 640T293 680T238 695Q208 695 182 681T140 641T124 584Q124 553 140 528T181
487T238 472Q292 472 337 445T410 373T437 273Q437 229 418 189T361 119Q399 88 418 49T437 -35Q437 -90 410 -135T338 -207T238 -234ZM238 163Q268 163 293 177T335 217T351 273Q351 305 335 330T294 370T238 386Q207 386 182 371T140 330T124 273Q124 243 140
218T181 178T238 163Z" />
<glyph unicode="&#xa8;" horiz-adv-x="469" d="M135 620Q112 620 96 636T79 676Q79 699 95 716T135 733Q159 733 175 716T192 676Q192 652 176 636T135 620ZM348 620Q325 620 309 636T292 676Q292 699 308 716T348 733Q372 733 388 716T405 676Q405 652 389 636T348 620Z" />
<glyph unicode="&#xa9;" horiz-adv-x="859" d="M441 144Q373 144 319 176T233 265T201 393Q201 465 231 521T313 609T434 642Q541 642 610 558Q621 544 619 529T600 504Q589 496 575 498T549 513Q503 565 434 565Q388 565 354 544T301 483T281 393Q281 342 301
303T358 242T441 220Q505 220 543 255Q556 265 570 266T595 258Q609 246 610 231T600 204Q536 144 441 144ZM436 0Q354 0 283 30T159 113T75 238T45 392Q45 472 75 542T159 667T284 751T436 782Q516 782 587 752T711 668T796 543T827 392Q827 309 797 238T712 114T588
30T436 0ZM435 72Q502 72 560 97T662 166T731 268T756 392Q756 458 731 516T662 618T559 687T435 712Q369 712 311 687T209 618T139 516T114 392Q114 326 139 268T208 166T310 97T435 72Z" />
<glyph unicode="&#xaa;" horiz-adv-x="477" d="M237 396Q181 396 136 422T66 492T40 593Q40 649 65 693T136 763T237 789Q293 789 338 764T408 694T434 592L393 504Q372 457 333 427T237 396ZM237 478Q286 478 319 510T352 592Q352 643 319 675T237 708Q188 708
155 676T121 592Q121 543 154 511T237 478ZM394 392Q375 392 365 404T356 435L367 592H434V435Q434 416 423 404T394 392Z" />
<glyph unicode="&#xab;" horiz-adv-x="469" d="M392 0Q379 0 369 6T352 26L239 250Q234 261 234 273Q234 283 238 294L352 520Q364 546 392 546Q410 546 422 534T434 504Q434 494 430 486L324 273L430 60Q434 52 434 43Q434 24 422 12T392 0ZM196 0Q184 0 174
6T157 26L45 250Q42 257 40 262T38 273Q38 283 44 294L157 520Q170 546 196 546Q215 546 227 534T239 504Q239 493 236 486L129 273L236 60Q239 54 239 43Q239 24 227 12T196 0Z" />
<glyph unicode="&#xac;" horiz-adv-x="547" d="M465 228Q448 228 436 240T424 271V382H81Q64 382 52 394T39 424Q39 443 51 455T81 467H465Q484 467 496 455T508 424V271Q508 253 496 241T465 228Z" />
<glyph unicode="&#xad;" horiz-adv-x="391" d="M79 231Q62 231 50 243T37 273Q37 292 49 304T79 316H311Q329 316 341 304T353 273Q353 255 341 243T311 231H79Z" />
<glyph unicode="&#xae;" horiz-adv-x="859" d="M324 159Q308 159 298 169T288 193V607Q288 623 299 632T326 642H434Q482 642 519 623T578 570T600 492Q600 448 578 414T518 360T434 341H359V193Q359 179 350 169T324 159ZM575 159Q554 159 544 175L428 364L495
385L601 212Q614 191 607 175T575 159ZM359 404H438Q478 404 504 427T530 492Q530 533 504 556T438 579H359V404ZM436 0Q354 0 283 30T159 113T75 238T45 392Q45 472 75 542T159 667T284 751T436 782Q516 782 587 752T711 668T796 543T827 392Q827 309 797 238T712
114T588 30T436 0ZM435 72Q502 72 560 97T662 166T731 268T756 392Q756 458 731 516T662 618T559 687T435 712Q369 712 311 687T209 618T139 516T114 392Q114 326 139 268T208 166T310 97T435 72Z" />
<glyph unicode="&#xaf;" horiz-adv-x="547" d="M146 641Q127 641 115 651T103 680Q103 698 115 708T146 718H402Q420 718 432 708T445 680Q445 661 433 651T402 641H146Z" />
<glyph unicode="&#xb0;" horiz-adv-x="469" d="M235 385Q180 385 136 411T65 483T38 582Q38 635 65 679T136 751T235 778Q289 778 333 752T405 680T432 582Q432 528 405 483T334 412T235 385ZM235 470Q265 470 290 485T331 525T346 582Q346 612 331 637T290 677T235
693Q204 693 179 678T139 637T124 582Q124 551 138 526T178 485T235 470Z" />
<glyph unicode="&#xb1;" horiz-adv-x="547" d="M273 164Q255 164 243 176T231 206V356H81Q64 356 52 368T39 399Q39 418 51 430T81 442H231V592Q231 609 243 621T273 634Q292 634 304 622T316 592V442H465Q483 442 495 430T508 399Q508 381 496 369T465 356H316V206Q316
188 304 176T273 164ZM81 135Q63 135 51 147T39 178Q39 195 51 207T81 219H465Q484 219 496 207T508 178Q508 159 496 147T465 135H81Z" />
<glyph unicode="&#xb2;" horiz-adv-x="368" d="M89 386Q71 386 60 397T49 425Q49 433 51 439T59 453L216 619Q229 633 234 645T240 671Q240 694 223 710T179 727Q146 727 127 708T107 663Q107 646 100 635T74 624Q59 624 51 635T42 663Q42 719 80 756T180 793Q239
793 274 758T310 670Q310 637 292 613T255 570L113 422L105 456H284Q300 456 311 448T323 422Q323 404 312 395T284 386H89Z" />
<glyph unicode="&#xb3;" horiz-adv-x="372" d="M186 377Q125 377 85 412T45 501Q45 518 55 529T83 540Q99 540 107 529T116 501Q116 477 134 461T185 444Q211 444 230 459T250 499Q250 526 234 543T195 560Q175 560 164 569T153 593Q153 628 190 628Q214 628 227
640T241 675Q241 697 225 710T183 724Q154 724 137 711T116 679Q114 666 105 657T85 647Q69 647 59 656T49 682Q49 713 67 738T115 778T182 793Q236 793 272 761T309 680Q309 653 293 630T250 594Q284 584 303 558T322 497Q322 462 304 435T256 393T186 377Z" />
<glyph unicode="&#xb4;" horiz-adv-x="273" d="M90 589Q72 589 60 601T48 632Q48 649 57 660L166 769Q178 781 196 781Q214 781 226 769T238 737Q238 720 226 709L119 600Q108 589 90 589Z" />
<glyph unicode="&#xb5;" horiz-adv-x="679" d="M337 -6Q270 -6 221 28T146 120T119 250H80V505Q80 524 91 535T122 547Q141 547 152 536T164 505V250Q164 198 186 159T247 96T337 73Q386 73 423 91T482 140T504 214L551 212Q550 149 521 100T444 22T337 -6ZM122
-234Q103 -234 92 -223T80 -191V289H164V-191Q164 -211 153 -222T122 -234ZM546 0Q527 0 516 11T504 43V505Q504 524 515 535T546 547Q565 547 577 536T589 505V43Q589 23 577 12T546 0Z" />
<glyph unicode="&#xb6;" horiz-adv-x="578" d="M280 0Q261 0 249 12T237 43V388Q181 390 138 416T70 487T45 584Q45 639 71 684T141 755T241 782H490Q508 782 520 770T533 738Q533 723 522 712T494 698V43Q494 24 482 12T451 0Q433 0 421 12T409 43V696H322V43Q322
24 310 12T280 0Z" />
<glyph unicode="&#xb7;" horiz-adv-x="195" d="M97 308Q71 308 53 326T35 370Q35 396 53 414T97 432Q122 432 139 414T157 370Q157 344 140 326T97 308Z" />
<glyph unicode="&#xb8;" horiz-adv-x="313" d="M155 -233Q99 -233 64 -210T28 -156Q28 -140 40 -128T68 -115Q80 -115 88 -121T103 -138Q110 -151 123 -158T156 -165Q177 -165 192 -156T207 -128Q207 -110 196 -99T157 -82Q131 -76 120 -64T119 -23L134 14Q145
48 182 48Q202 48 212 34T214 0L199 -36Q251 -48 273 -71T295 -129Q295 -157 277 -180T228 -218T155 -233Z" />
<glyph unicode="&#xb9;" horiz-adv-x="283" d="M180 386Q162 386 153 397T144 429V695L92 677Q69 670 51 672T26 690Q20 707 29 720T54 738L164 776Q191 785 204 775T217 737V429Q217 409 209 398T180 386Z" />
<glyph unicode="&#xba;" horiz-adv-x="474" d="M237 396Q181 396 136 422T66 492T40 593Q40 649 65 693T136 763T237 789Q293 789 338 764T408 694T434 592Q434 536 409 492T338 422T237 396ZM237 478Q286 478 319 510T352 592Q352 643 319 675T237 708Q188 708
155 676T121 592Q121 543 154 511T237 478Z" />
<glyph unicode="&#xbb;" horiz-adv-x="469" d="M276 0Q258 0 246 12T234 43Q234 53 237 60L344 273L237 486Q236 490 235 494T234 504Q234 522 246 534T276 546Q303 546 316 520L429 294Q431 288 432 283T434 273Q434 268 433 263T428 250L316 26Q309 13 299 7T276
0ZM81 0Q64 0 52 12T39 43Q39 53 43 60L148 273L43 486Q42 490 40 494T38 504Q38 522 51 534T81 546Q108 546 120 520L234 294Q236 288 237 283T239 273Q239 262 233 250L120 26Q114 13 104 7T81 0Z" />
<glyph unicode="&#xbc;" horiz-adv-x="773" d="M180 386Q162 386 153 397T144 429V695L92 677Q69 670 51 672T26 690Q20 707 29 720T54 738L164 776Q191 785 204 775T217 737V429Q217 409 209 398T180 386ZM145 0Q126 0 117 16T119 50L582 763Q590 775 599 780T618
785Q638 785 647 768T642 727L178 22Q163 0 145 0ZM627 -6Q610 -6 601 3T591 27V84H430Q414 84 404 93T394 117Q394 131 405 147L589 385Q597 395 606 399T625 404Q640 404 651 395T663 370V147H697Q711 147 720 139T729 116Q729 100 720 92T697 84H663V27Q663
12 654 3T627 -6ZM481 147H593V296L481 147Z" />
<glyph unicode="&#xbd;" horiz-adv-x="834" d="M180 386Q162 386 153 397T144 429V695L92 677Q69 670 51 672T26 690Q20 707 29 720T54 738L164 776Q191 785 204 775T217 737V429Q217 409 209 398T180 386ZM181 0Q162 0 153 16T155 50L618 763Q626 775 635 780T654
785Q674 785 683 768T678 727L214 22Q199 0 181 0ZM560 0Q542 0 531 11T520 39Q520 47 522 53T530 67L687 233Q700 247 705 259T711 285Q711 308 694 324T650 341Q617 341 598 322T578 277Q578 260 571 249T545 238Q530 238 522 249T513 277Q513 333 551 370T651
407Q710 407 745 372T781 284Q781 251 763 227T726 184L584 36L576 70H755Q771 70 782 62T794 36Q794 18 783 9T755 0H560Z" />
<glyph unicode="&#xbe;" horiz-adv-x="845" d="M186 377Q125 377 85 412T45 501Q45 518 55 529T83 540Q99 540 107 529T116 501Q116 477 134 461T185 444Q211 444 230 459T250 499Q250 526 234 543T195 560Q175 560 164 569T153 593Q153 628 190 628Q214 628 227
640T241 675Q241 697 225 710T183 724Q154 724 137 711T116 679Q114 666 105 657T85 647Q69 647 59 656T49 682Q49 713 67 738T115 778T182 793Q236 793 272 761T309 680Q309 653 293 630T250 594Q284 584 303 558T322 497Q322 462 304 435T256 393T186 377ZM193
0Q174 0 165 16T167 50L630 763Q638 775 647 780T666 785Q686 785 695 768T690 727L226 22Q211 0 193 0ZM694 -6Q677 -6 668 3T658 27V84H497Q481 84 471 93T461 117Q461 131 472 147L656 385Q664 395 673 399T692 404Q707 404 718 395T730 370V147H764Q778 147
787 139T796 116Q796 100 787 92T764 84H730V27Q730 12 721 3T694 -6ZM548 147H660V296L548 147Z" />
<glyph unicode="&#xbf;" horiz-adv-x="547" d="M271 442Q290 442 301 430T313 399Q313 358 294 312T237 232Q207 205 181 179T137 121T120 40Q120 3 138 -28T188 -77T265 -96Q315 -96 349 -76T402 -22T421 59Q421 78 432 89T463 101Q481 101 493 90T505 59Q505
-10 475 -63T391 -146T265 -176Q199 -176 148 -148T66 -71T36 43Q36 99 55 138T107 211T179 278Q208 304 218 338T228 399Q228 418 240 430T271 442ZM271 621Q297 621 314 603T332 560Q332 533 314 515T271 497Q245 497 227 515T208 560Q208 585 226 603T271 621Z"
/>
<glyph unicode="&#xc0;" horiz-adv-x="703" d="M61 0Q36 0 25 20T22 62L312 752Q325 781 354 781Q383 781 394 752L685 61Q695 39 683 20T647 0Q634 0 623 7T606 26L340 678H370L100 26Q95 13 84 7T61 0ZM123 182L156 255H557L591 182H123ZM351 869Q333 869 322
881L213 988Q203 1001 203 1018Q203 1036 214 1049T244 1062Q262 1062 275 1049L382 940Q393 931 393 912Q393 894 381 882T351 869Z" />
<glyph unicode="&#xc1;" horiz-adv-x="703" d="M61 0Q36 0 25 20T22 62L312 752Q325 781 354 781Q383 781 394 752L685 61Q695 39 683 20T647 0Q634 0 623 7T606 26L340 678H370L100 26Q95 13 84 7T61 0ZM123 182L156 255H557L591 182H123ZM348 865Q330 865 318
877T306 907Q306 925 315 936L424 1044Q436 1057 454 1057Q472 1057 484 1045T496 1013Q496 1005 494 998T484 984L377 876Q366 865 348 865Z" />
<glyph unicode="&#xc2;" horiz-adv-x="703" d="M61 0Q36 0 25 20T22 62L312 752Q325 781 354 781Q383 781 394 752L685 61Q695 39 683 20T647 0Q634 0 623 7T606 26L340 678H370L100 26Q95 13 84 7T61 0ZM123 182L156 255H557L591 182H123ZM238 862Q219 862 207
872T194 899Q194 922 215 936L331 1013Q340 1018 352 1018Q359 1018 364 1017T374 1013L489 936Q510 922 510 899Q510 883 498 873T467 862Q460 862 454 864T441 871L352 933L263 871Q251 862 238 862Z" />
<glyph unicode="&#xc3;" horiz-adv-x="703" d="M61 0Q36 0 25 20T22 62L312 752Q325 781 354 781Q383 781 394 752L685 61Q695 39 683 20T647 0Q634 0 623 7T606 26L340 678H370L100 26Q95 13 84 7T61 0ZM123 182L156 255H557L591 182H123ZM418 872Q392 872 372
883T337 910Q323 923 314 929T294 936Q283 936 275 927T258 902Q250 888 237 883T209 883Q194 889 189 903T192 932Q211 971 234 988T289 1006Q320 1006 338 992T371 966Q385 953 393 949T409 944Q422 944 433 965Q442 979 456 985T483 987Q500 980 505 966T503
937Q485 902 464 887T418 872Z" />
<glyph unicode="&#xc4;" horiz-adv-x="703" d="M61 0Q36 0 25 20T22 62L312 752Q325 781 354 781Q383 781 394 752L685 61Q695 39 683 20T647 0Q634 0 623 7T606 26L340 678H370L100 26Q95 13 84 7T61 0ZM123 182L156 255H557L591 182H123ZM246 876Q222 876 206
892T189 933Q189 955 205 972T246 989Q269 989 286 972T303 933Q303 908 286 892T246 876ZM459 876Q435 876 419 892T403 933Q403 955 419 972T459 989Q482 989 499 972T516 933Q516 908 499 892T459 876Z" />
<glyph unicode="&#xc5;" horiz-adv-x="703" d="M61 0Q36 0 25 20T22 62L312 752Q325 781 354 781Q383 781 394 752L685 61Q695 39 683 20T647 0Q634 0 623 7T606 26L340 678H370L100 26Q95 13 84 7T61 0ZM123 182L156 255H557L591 182H123ZM352 825Q309 825 280
853T251 926Q251 969 280 998T352 1027Q395 1027 423 998T452 926Q452 883 424 854T352 825ZM352 873Q375 873 389 888T404 926Q404 949 390 963T352 978Q330 978 315 964T300 926Q300 904 315 889T352 873Z" />
<glyph unicode="&#xc6;" horiz-adv-x="973" d="M63 0Q46 0 35 10T20 34T24 62L444 750Q453 765 465 773T497 781H886Q904 781 916 770T928 740Q928 723 916 712T886 700H529V434H770Q788 434 800 422T812 393Q812 375 800 364T770 352H529V81H886Q904 81 916 70T928
41Q928 23 916 12T886 0H486Q468 0 456 12T443 43V182H195L102 26Q88 0 63 0ZM240 255H443V636L466 635L240 255Z" />
<glyph unicode="&#xc7;" horiz-adv-x="771" d="M451 -10Q370 -10 300 21T176 107T93 234T63 391Q63 474 92 546T175 673T298 759T451 791Q524 791 582 771T695 704Q704 697 706 689T707 672T699 658Q697 647 688 641T665 634T639 644Q601 678 557 694T451 711Q388
711 333 686T235 616T170 514T146 391Q146 324 169 266T235 164T332 95T451 70Q504 70 552 88T644 139Q658 150 672 148T697 136T708 107Q708 98 705 91T696 76Q644 31 582 11T451 -10ZM438 -233Q382 -233 347 -210T311 -156Q311 -140 323 -128T351 -116Q363 -116
371 -121T386 -138Q394 -151 407 -158T439 -165Q461 -165 475 -156T490 -128Q490 -110 479 -99T440 -82Q414 -77 403 -64T402 -23L417 14Q422 30 433 39T465 48Q485 48 495 34T497 0L482 -36Q534 -48 556 -71T578 -129Q578 -157 560 -180T511 -218T438 -233Z" />
<glyph unicode="&#xc8;" horiz-adv-x="694" d="M143 0Q124 0 112 12T100 43V738Q100 757 112 769T143 781H607Q625 781 637 770T649 740Q649 723 637 712T607 700H186V434H491Q510 434 522 422T534 393Q534 375 522 364T491 352H186V81H607Q625 81 637 70T649
41Q649 23 637 12T607 0H143ZM383 869Q365 869 354 881L245 988Q235 1001 235 1018Q235 1036 246 1049T276 1062Q294 1062 307 1049L414 940Q425 931 425 912Q425 894 413 882T383 869Z" />
<glyph unicode="&#xc9;" horiz-adv-x="694" d="M143 0Q124 0 112 12T100 43V738Q100 757 112 769T143 781H607Q625 781 637 770T649 740Q649 723 637 712T607 700H186V434H491Q510 434 522 422T534 393Q534 375 522 364T491 352H186V81H607Q625 81 637 70T649
41Q649 23 637 12T607 0H143ZM379 865Q361 865 349 877T337 907Q337 925 346 936L455 1044Q467 1057 485 1057Q503 1057 515 1045T527 1013Q527 1005 525 998T515 984L408 876Q397 865 379 865Z" />
<glyph unicode="&#xca;" horiz-adv-x="694" d="M143 0Q124 0 112 12T100 43V738Q100 757 112 769T143 781H607Q625 781 637 770T649 740Q649 723 637 712T607 700H186V434H491Q510 434 522 422T534 393Q534 375 522 364T491 352H186V81H607Q625 81 637 70T649
41Q649 23 637 12T607 0H143ZM270 862Q251 862 239 872T226 899Q226 922 247 936L363 1013Q372 1018 384 1018Q391 1018 396 1017T406 1013L521 936Q542 922 542 899Q542 883 530 873T499 862Q492 862 486 864T473 871L384 933L295 871Q283 862 270 862Z" />
<glyph unicode="&#xcb;" horiz-adv-x="694" d="M143 0Q124 0 112 12T100 43V738Q100 757 112 769T143 781H607Q625 781 637 770T649 740Q649 723 637 712T607 700H186V434H491Q510 434 522 422T534 393Q534 375 522 364T491 352H186V81H607Q625 81 637 70T649
41Q649 23 637 12T607 0H143ZM277 876Q253 876 237 892T220 933Q220 955 236 972T277 989Q300 989 317 972T334 933Q334 908 317 892T277 876ZM490 876Q466 876 450 892T434 933Q434 955 450 972T490 989Q513 989 530 972T547 933Q547 908 530 892T490 876Z" />
<glyph unicode="&#xcc;" horiz-adv-x="286" d="M143 0Q124 0 112 12T100 43V738Q100 757 112 769T143 781Q162 781 174 769T186 738V43Q186 24 174 12T143 0ZM142 869Q124 869 113 881L4 988Q-6 1001 -6 1018Q-6 1036 5 1049T35 1062Q53 1062 66 1049L173 940Q184
931 184 912Q184 894 172 882T142 869Z" />
<glyph unicode="&#xcd;" horiz-adv-x="286" d="M143 0Q124 0 112 12T100 43V738Q100 757 112 769T143 781Q162 781 174 769T186 738V43Q186 24 174 12T143 0ZM139 865Q121 865 109 877T97 907Q97 925 106 936L215 1044Q227 1057 245 1057Q263 1057 275 1045T287
1013Q287 1005 285 998T275 984L168 876Q157 865 139 865Z" />
<glyph unicode="&#xce;" horiz-adv-x="286" d="M143 0Q124 0 112 12T100 43V738Q100 757 112 769T143 781Q162 781 174 769T186 738V43Q186 24 174 12T143 0ZM29 862Q10 862 -2 872T-15 899Q-15 922 6 936L122 1013Q131 1018 143 1018Q150 1018 155 1017T165 1013L280
936Q301 922 301 899Q301 883 289 873T258 862Q251 862 245 864T232 871L143 933L54 871Q42 862 29 862Z" />
<glyph unicode="&#xcf;" horiz-adv-x="286" d="M143 0Q124 0 112 12T100 43V738Q100 757 112 769T143 781Q162 781 174 769T186 738V43Q186 24 174 12T143 0ZM37 876Q13 876 -3 892T-20 933Q-20 955 -4 972T37 989Q60 989 77 972T94 933Q94 908 77 892T37 876ZM250
876Q226 876 210 892T194 933Q194 955 210 972T250 989Q273 989 290 972T307 933Q307 908 290 892T250 876Z" />
<glyph unicode="&#xd0;" horiz-adv-x="774" d="M40 354Q22 354 11 363T0 391Q0 409 11 418T40 428H329Q347 428 359 419T371 391Q371 373 359 364T329 354H40ZM143 0Q124 0 112 12T100 43V738Q100 757 112 769T143 781H323Q409 781 480 753T604 672T684 548T712
391Q712 305 684 234T604 110T481 29T323 0H143ZM186 77H323Q413 77 481 117T589 229T628 391Q628 482 589 553T482 664T323 704H186V77Z" />
<glyph unicode="&#xd1;" horiz-adv-x="827" d="M143 0Q124 0 112 12T100 43V738Q100 757 112 769T143 781Q163 781 176 765L641 152V738Q641 757 653 769T684 781Q702 781 714 769T727 738V43Q727 24 715 12T684 0Q675 0 666 3T651 15L186 628V43Q186 24 174 12T143
0ZM519 859Q487 859 463 870T421 892Q399 905 386 910T359 915Q342 915 327 908T298 882Q288 868 274 863T244 866Q230 873 228 889T235 919Q259 951 292 968T362 986Q394 986 417 975T457 954Q478 942 490 937T518 931Q533 931 544 936T564 950Q576 962 588 966T615
962Q629 955 631 939T623 908Q584 859 519 859Z" />
<glyph unicode="&#xd2;" horiz-adv-x="921" d="M461 -10Q374 -10 301 20T175 103T92 230T63 391Q63 478 92 551T174 677T301 761T461 791Q548 791 620 761T747 678T830 551T859 391Q859 304 830 231T747 104T621 20T461 -10ZM461 70Q529 70 586 94T686 162T752
264T775 391Q775 459 752 517T687 619T587 687T461 711Q393 711 335 687T235 620T170 518T146 391Q146 323 169 265T235 163T335 95T461 70ZM460 869Q442 869 431 881L322 988Q312 1001 312 1018Q312 1036 323 1049T353 1062Q371 1062 384 1049L491 940Q502 931
502 912Q502 894 490 882T460 869Z" />
<glyph unicode="&#xd3;" horiz-adv-x="921" d="M461 -10Q374 -10 301 20T175 103T92 230T63 391Q63 478 92 551T174 677T301 761T461 791Q548 791 620 761T747 678T830 551T859 391Q859 304 830 231T747 104T621 20T461 -10ZM461 70Q529 70 586 94T686 162T752
264T775 391Q775 459 752 517T687 619T587 687T461 711Q393 711 335 687T235 620T170 518T146 391Q146 323 169 265T235 163T335 95T461 70ZM457 865Q439 865 427 877T415 907Q415 925 424 936L533 1044Q545 1057 563 1057Q581 1057 593 1045T605 1013Q605 1005
603 998T593 984L486 876Q475 865 457 865Z" />
<glyph unicode="&#xd4;" horiz-adv-x="921" d="M461 -10Q374 -10 301 20T175 103T92 230T63 391Q63 478 92 551T174 677T301 761T461 791Q548 791 620 761T747 678T830 551T859 391Q859 304 830 231T747 104T621 20T461 -10ZM461 70Q529 70 586 94T686 162T752
264T775 391Q775 459 752 517T687 619T587 687T461 711Q393 711 335 687T235 620T170 518T146 391Q146 323 169 265T235 163T335 95T461 70ZM347 862Q328 862 316 872T303 899Q303 922 324 936L440 1013Q449 1018 461 1018Q468 1018 473 1017T483 1013L598 936Q619
922 619 899Q619 883 607 873T576 862Q569 862 563 864T550 871L461 933L372 871Q360 862 347 862Z" />
<glyph unicode="&#xd5;" horiz-adv-x="921" d="M461 -10Q374 -10 301 20T175 103T92 230T63 391Q63 478 92 551T174 677T301 761T461 791Q548 791 620 761T747 678T830 551T859 391Q859 304 830 231T747 104T621 20T461 -10ZM461 70Q529 70 586 94T686 162T752
264T775 391Q775 459 752 517T687 619T587 687T461 711Q393 711 335 687T235 620T170 518T146 391Q146 323 169 265T235 163T335 95T461 70ZM566 859Q534 859 510 870T468 892Q446 905 433 910T406 915Q389 915 374 908T345 882Q335 868 321 863T291 866Q277 873
275 889T282 919Q306 951 339 968T409 986Q441 986 464 975T504 954Q525 942 537 937T565 931Q580 931 591 936T611 950Q623 962 635 966T662 962Q676 955 678 939T670 908Q631 859 566 859Z" />
<glyph unicode="&#xd6;" horiz-adv-x="921" d="M461 -10Q374 -10 301 20T175 103T92 230T63 391Q63 478 92 551T174 677T301 761T461 791Q548 791 620 761T747 678T830 551T859 391Q859 304 830 231T747 104T621 20T461 -10ZM461 70Q529 70 586 94T686 162T752
264T775 391Q775 459 752 517T687 619T587 687T461 711Q393 711 335 687T235 620T170 518T146 391Q146 323 169 265T235 163T335 95T461 70ZM355 876Q331 876 315 892T298 933Q298 955 314 972T355 989Q378 989 395 972T412 933Q412 908 395 892T355 876ZM568 876Q544
876 528 892T512 933Q512 955 528 972T568 989Q591 989 608 972T625 933Q625 908 608 892T568 876Z" />
<glyph unicode="&#xd7;" horiz-adv-x="469" d="M81 154Q63 154 51 166T38 196Q38 215 50 227L174 351L50 475Q38 488 38 504Q38 522 50 534T81 547Q99 547 112 535L235 411L358 535Q371 547 389 547Q407 547 419 535T432 504Q432 487 420 475L296 351L420 227Q432
214 432 196Q432 178 420 166T389 154Q371 154 359 165L235 290L111 165Q99 154 81 154Z" />
<glyph unicode="&#xd8;" horiz-adv-x="895" d="M89 0Q67 0 60 19T66 51L159 144L191 168L695 672L723 693L804 773Q812 781 825 781Q844 781 854 764T848 731L767 650L741 631L232 122L204 102L110 8Q102 0 89 0ZM461 -10Q374 -10 301 20T175 103T92 230T63 391Q63
478 92 551T174 677T301 761T461 791Q548 791 620 761T747 678T830 551T859 391Q859 304 830 231T747 104T621 20T461 -10ZM461 70Q529 70 586 94T686 162T752 264T775 391Q775 459 752 517T687 619T587 687T461 711Q393 711 335 687T235 620T170 518T146 391Q146
323 169 265T235 163T335 95T461 70Z" />
<glyph unicode="&#xd9;" horiz-adv-x="827" d="M416 -16Q323 -16 252 19T140 116T100 259V738Q100 757 112 769T143 781Q162 781 174 769T186 738V259Q186 202 215 158T296 89T416 64Q482 64 532 89T612 158T641 259V738Q641 757 653 769T684 781Q704 781 715
769T727 738V259Q727 179 687 117T577 19T416 -16ZM413 869Q395 869 384 881L275 988Q265 1001 265 1018Q265 1036 276 1049T306 1062Q324 1062 337 1049L444 940Q455 931 455 912Q455 894 443 882T413 869Z" />
<glyph unicode="&#xda;" horiz-adv-x="827" d="M416 -16Q323 -16 252 19T140 116T100 259V738Q100 757 112 769T143 781Q162 781 174 769T186 738V259Q186 202 215 158T296 89T416 64Q482 64 532 89T612 158T641 259V738Q641 757 653 769T684 781Q704 781 715
769T727 738V259Q727 179 687 117T577 19T416 -16ZM410 865Q392 865 380 877T368 907Q368 925 377 936L486 1044Q498 1057 516 1057Q534 1057 546 1045T558 1013Q558 1005 556 998T546 984L439 876Q428 865 410 865Z" />
<glyph unicode="&#xdb;" horiz-adv-x="827" d="M416 -16Q323 -16 252 19T140 116T100 259V738Q100 757 112 769T143 781Q162 781 174 769T186 738V259Q186 202 215 158T296 89T416 64Q482 64 532 89T612 158T641 259V738Q641 757 653 769T684 781Q704 781 715
769T727 738V259Q727 179 687 117T577 19T416 -16ZM300 862Q281 862 269 872T256 899Q256 922 277 936L393 1013Q402 1018 414 1018Q421 1018 426 1017T436 1013L551 936Q572 922 572 899Q572 883 560 873T529 862Q522 862 516 864T503 871L414 933L325 871Q313
862 300 862Z" />
<glyph unicode="&#xdc;" horiz-adv-x="827" d="M416 -16Q323 -16 252 19T140 116T100 259V738Q100 757 112 769T143 781Q162 781 174 769T186 738V259Q186 202 215 158T296 89T416 64Q482 64 532 89T612 158T641 259V738Q641 757 653 769T684 781Q704 781 715
769T727 738V259Q727 179 687 117T577 19T416 -16ZM308 876Q284 876 268 892T251 933Q251 955 267 972T308 989Q331 989 348 972T365 933Q365 908 348 892T308 876ZM521 876Q497 876 481 892T465 933Q465 955 481 972T521 989Q544 989 561 972T578 933Q578 908
561 892T521 876Z" />
<glyph unicode="&#xdd;" horiz-adv-x="655" d="M327 0Q310 0 297 12T284 43V288L14 714Q3 731 5 746T19 771T47 781Q61 781 69 775T84 759L349 334H308L574 759Q581 770 590 775T613 781Q628 781 638 771T650 745T642 714L370 288V43Q370 25 358 13T327 0ZM324
865Q306 865 294 877T282 907Q282 925 291 936L400 1044Q412 1057 430 1057Q448 1057 460 1045T472 1013Q472 1005 470 998T460 984L353 876Q342 865 324 865Z" />
<glyph unicode="&#xde;" horiz-adv-x="615" d="M143 0Q124 0 112 12T100 43V738Q100 757 112 769T143 781Q162 781 174 769T186 738V641H343Q417 641 474 612T564 531T596 410Q596 343 564 292T475 212T343 183H186V43Q186 24 174 12T143 0ZM186 257H343Q392 257
431 277T491 331T513 410Q513 454 492 489T431 545T343 566H186V257Z" />
<glyph unicode="&#xdf;" horiz-adv-x="547" d="M90 0Q72 0 60 12T48 42V578Q48 634 75 679T150 750T260 776Q316 776 359 753T428 690T453 598Q453 563 440 538T410 494T379 457T366 415Q366 392 380 373T417 335T462 292T499 240T514 172Q514 122 490 83T421
20T319 -3Q284 -3 250 10T192 43T169 87Q169 104 178 114T205 124Q221 124 230 117T249 100T276 83T325 75Q375 75 403 100T431 172Q431 202 417 225T381 269T338 311T303 356T288 412Q288 446 301 467T331 505T362 542T375 596Q375 645 344 671T258 698Q205 698
170 664T134 574V42Q134 24 122 12T90 0Z" />
<glyph unicode="&#xe0;" horiz-adv-x="676" d="M327 -5Q251 -5 191 31T96 131T61 273Q61 353 97 416T197 515T339 552Q417 552 479 516T578 416T616 273L582 256Q582 182 549 123T458 30T327 -5ZM339 71Q395 71 438 97T507 170T533 273Q533 331 508 376T439 449T339
476Q284 476 240 449T169 377T143 273Q143 216 169 170T239 98T339 71ZM573 0Q555 0 543 11T530 42V207L549 294L616 273V42Q616 23 604 12T573 0ZM337 635Q319 635 308 647L199 754Q189 767 189 784Q189 802 200 815T230 828Q248 828 261 815L368 706Q379 697
379 678Q379 660 367 648T337 635Z" />
<glyph unicode="&#xe1;" horiz-adv-x="676" d="M327 -5Q251 -5 191 31T96 131T61 273Q61 353 97 416T197 515T339 552Q417 552 479 516T578 416T616 273L582 256Q582 182 549 123T458 30T327 -5ZM339 71Q395 71 438 97T507 170T533 273Q533 331 508 376T439 449T339
476Q284 476 240 449T169 377T143 273Q143 216 169 170T239 98T339 71ZM573 0Q555 0 543 11T530 42V207L549 294L616 273V42Q616 23 604 12T573 0ZM335 631Q317 631 305 643T293 673Q293 691 302 702L411 810Q423 823 441 823Q459 823 471 811T483 779Q483 771
481 764T471 750L364 642Q353 631 335 631Z" />
<glyph unicode="&#xe2;" horiz-adv-x="676" d="M327 -5Q251 -5 191 31T96 131T61 273Q61 353 97 416T197 515T339 552Q417 552 479 516T578 416T616 273L582 256Q582 182 549 123T458 30T327 -5ZM339 71Q395 71 438 97T507 170T533 273Q533 331 508 376T439 449T339
476Q284 476 240 449T169 377T143 273Q143 216 169 170T239 98T339 71ZM573 0Q555 0 543 11T530 42V207L549 294L616 273V42Q616 23 604 12T573 0ZM225 628Q206 628 194 638T181 665Q181 688 202 702L318 779Q327 784 339 784Q346 784 351 783T361 779L476 702Q497
688 497 665Q497 649 485 639T454 628Q447 628 441 630T428 637L339 699L250 637Q238 628 225 628Z" />
<glyph unicode="&#xe3;" horiz-adv-x="676" d="M327 -5Q251 -5 191 31T96 131T61 273Q61 353 97 416T197 515T339 552Q417 552 479 516T578 416T616 273L582 256Q582 182 549 123T458 30T327 -5ZM339 71Q395 71 438 97T507 170T533 273Q533 331 508 376T439 449T339
476Q284 476 240 449T169 377T143 273Q143 216 169 170T239 98T339 71ZM573 0Q555 0 543 11T530 42V207L549 294L616 273V42Q616 23 604 12T573 0ZM445 625Q413 625 389 636T347 658Q325 671 312 676T285 681Q268 681 253 674T224 648Q214 634 200 629T170 632Q156
639 154 655T161 685Q185 717 218 734T288 752Q320 752 343 741T383 720Q404 708 416 703T444 697Q459 697 470 702T490 716Q502 728 514 732T541 728Q555 721 557 705T549 674Q510 625 445 625Z" />
<glyph unicode="&#xe4;" horiz-adv-x="676" d="M327 -5Q251 -5 191 31T96 131T61 273Q61 353 97 416T197 515T339 552Q417 552 479 516T578 416T616 273L582 256Q582 182 549 123T458 30T327 -5ZM339 71Q395 71 438 97T507 170T533 273Q533 331 508 376T439 449T339
476Q284 476 240 449T169 377T143 273Q143 216 169 170T239 98T339 71ZM573 0Q555 0 543 11T530 42V207L549 294L616 273V42Q616 23 604 12T573 0ZM232 642Q208 642 192 658T175 699Q175 721 191 738T232 755Q255 755 272 738T289 699Q289 674 272 658T232 642ZM445
642Q421 642 405 658T389 699Q389 721 405 738T445 755Q468 755 485 738T502 699Q502 674 485 658T445 642Z" />
<glyph unicode="&#xe5;" horiz-adv-x="676" d="M327 -5Q251 -5 191 31T96 131T61 273Q61 353 97 416T197 515T339 552Q417 552 479 516T578 416T616 273L582 256Q582 182 549 123T458 30T327 -5ZM339 71Q395 71 438 97T507 170T533 273Q533 331 508 376T439 449T339
476Q284 476 240 449T169 377T143 273Q143 216 169 170T239 98T339 71ZM573 0Q555 0 543 11T530 42V207L549 294L616 273V42Q616 23 604 12T573 0ZM339 591Q296 591 267 619T238 692Q238 735 267 764T339 793Q382 793 410 764T439 692Q439 649 411 620T339 591ZM339
639Q362 639 376 654T391 692Q391 715 377 729T339 744Q317 744 302 730T287 692Q287 670 302 655T339 639Z" />
<glyph unicode="&#xe6;" horiz-adv-x="1091" d="M815 -5Q737 -5 676 30T581 129T546 273Q546 355 579 417T669 516T800 552Q877 552 933 518T1020 422T1051 283Q1051 266 1040 256T1012 245H593V314H1016L975 284Q974 339 953 383T894 452T800 477Q743 477 701
451T636 379T613 273Q613 214 639 168T711 96T815 70Q853 70 886 82T942 112Q954 121 969 122T995 113Q1009 100 1010 85T997 59Q964 32 913 14T815 -5ZM327 -5Q251 -5 191 31T96 131T61 273Q61 353 97 416T197 515T339 552Q417 552 479 516T578 416T616 273L582
256Q582 182 549 123T458 30T327 -5ZM339 71Q395 71 438 97T507 170T533 273Q533 331 508 376T439 449T339 476Q284 476 240 449T169 377T143 273Q143 216 169 170T239 98T339 71ZM573 0Q555 0 543 11T530 42V207L549 294L616 273V42Q616 23 604 12T573 0Z" />
<glyph unicode="&#xe7;" horiz-adv-x="597" d="M335 -5Q256 -5 194 31T97 131T61 273Q61 353 95 416T189 515T327 552Q387 552 438 529T528 458Q540 444 537 430T518 404Q506 396 492 398T465 414Q410 476 327 476Q272 476 231 450T166 379T143 273Q143 215 167
170T235 98T335 71Q373 71 403 81T458 112Q472 123 486 124T512 116Q525 104 527 89T517 62Q444 -5 335 -5ZM313 -233Q257 -233 222 -210T186 -156Q186 -140 198 -128T226 -116Q238 -116 246 -121T261 -138Q269 -151 282 -158T314 -165Q336 -165 350 -156T365 -128Q365
-110 354 -99T315 -82Q289 -77 278 -64T277 -23L292 14Q297 30 308 39T340 48Q360 48 370 34T372 0L357 -36Q409 -48 431 -71T453 -129Q453 -157 435 -180T386 -218T313 -233Z" />
<glyph unicode="&#xe8;" horiz-adv-x="616" d="M341 -5Q259 -5 196 30T97 129T61 273Q61 355 95 417T188 516T326 552Q402 552 458 518T545 422T576 283Q576 266 565 256T537 245H119V314H542L499 284Q500 339 479 383T419 452T326 477Q269 477 227 451T162 379T139
273Q139 214 165 168T236 96T341 70Q375 70 410 82T467 112Q479 121 494 121T520 113Q535 100 535 85T522 59Q489 31 438 13T341 -5ZM318 635Q300 635 289 647L180 754Q170 767 170 784Q170 802 181 815T211 828Q229 828 242 815L349 706Q360 697 360 678Q360 660
348 648T318 635Z" />
<glyph unicode="&#xe9;" horiz-adv-x="616" d="M341 -5Q259 -5 196 30T97 129T61 273Q61 355 95 417T188 516T326 552Q402 552 458 518T545 422T576 283Q576 266 565 256T537 245H119V314H542L499 284Q500 339 479 383T419 452T326 477Q269 477 227 451T162 379T139
273Q139 214 165 168T236 96T341 70Q375 70 410 82T467 112Q479 121 494 121T520 113Q535 100 535 85T522 59Q489 31 438 13T341 -5ZM315 631Q297 631 285 643T273 673Q273 691 282 702L391 810Q403 823 421 823Q439 823 451 811T463 779Q463 771 461 764T451 750L344
642Q333 631 315 631Z" />
<glyph unicode="&#xea;" horiz-adv-x="616" d="M341 -5Q259 -5 196 30T97 129T61 273Q61 355 95 417T188 516T326 552Q402 552 458 518T545 422T576 283Q576 266 565 256T537 245H119V314H542L499 284Q500 339 479 383T419 452T326 477Q269 477 227 451T162 379T139
273Q139 214 165 168T236 96T341 70Q375 70 410 82T467 112Q479 121 494 121T520 113Q535 100 535 85T522 59Q489 31 438 13T341 -5ZM205 628Q186 628 174 638T161 665Q161 688 182 702L298 779Q307 784 319 784Q326 784 331 783T341 779L456 702Q477 688 477 665Q477
649 465 639T434 628Q427 628 421 630T408 637L319 699L230 637Q218 628 205 628Z" />
<glyph unicode="&#xeb;" horiz-adv-x="616" d="M341 -5Q259 -5 196 30T97 129T61 273Q61 355 95 417T188 516T326 552Q402 552 458 518T545 422T576 283Q576 266 565 256T537 245H119V314H542L499 284Q500 339 479 383T419 452T326 477Q269 477 227 451T162 379T139
273Q139 214 165 168T236 96T341 70Q375 70 410 82T467 112Q479 121 494 121T520 113Q535 100 535 85T522 59Q489 31 438 13T341 -5ZM212 642Q188 642 172 658T155 699Q155 721 171 738T212 755Q235 755 252 738T269 699Q269 674 252 658T212 642ZM425 642Q401
642 385 658T369 699Q369 721 385 738T425 755Q448 755 465 738T482 699Q482 674 465 658T425 642Z" />
<glyph unicode="&#xec;" horiz-adv-x="293" d="M147 0Q128 0 116 11T104 43V504Q104 524 116 535T147 547Q166 547 177 536T189 504V43Q189 23 178 12T147 0ZM402 635Q384 635 373 647L264 754Q254 767 254 784Q254 802 265 815T295 828Q313 828 326 815L433 706Q444
697 444 678Q444 660 432 648T402 635Z" />
<glyph unicode="&#xed;" horiz-adv-x="293" d="M147 0Q128 0 116 11T104 43V504Q104 524 116 535T147 547Q166 547 177 536T189 504V43Q189 23 178 12T147 0ZM142 631Q124 631 112 643T100 673Q100 691 109 702L218 810Q230 823 248 823Q266 823 278 811T290 779Q290
771 288 764T278 750L171 642Q160 631 142 631Z" />
<glyph unicode="&#xee;" horiz-adv-x="293" d="M43 628Q27 628 16 638T4 665Q4 688 23 702L128 779Q136 784 147 784Q152 784 157 783T167 779L270 702Q289 688 289 665Q289 649 279 639T251 628Q243 628 238 630T226 637L147 699L67 637Q56 628 43 628ZM147 0Q128
0 116 11T104 43V504Q104 524 116 535T147 547Q166 547 177 536T189 504V43Q189 23 178 12T147 0Z" />
<glyph unicode="&#xef;" horiz-adv-x="293" d="M50 667Q26 667 9 683T-8 724Q-8 747 9 763T50 780Q73 780 90 764T107 724Q107 700 90 684T50 667ZM243 667Q219 667 203 683T186 724Q186 747 202 763T243 780Q266 780 283 764T300 724Q300 700 283 684T243 667ZM147
0Q128 0 116 11T104 43V504Q104 524 116 535T147 547Q166 547 177 536T189 504V43Q189 23 178 12T147 0Z" />
<glyph unicode="&#xf0;" horiz-adv-x="669" d="M327 -5Q249 -5 189 28T95 121T61 257Q61 333 93 391T184 483T316 516Q386 516 440 485T524 398T555 269H599Q599 189 564 127T468 30T327 -5ZM327 71Q383 71 425 95T492 160T517 257Q517 311 493 352T426 416T327
440Q273 440 232 417T167 352T143 257Q143 202 167 161T232 95T327 71ZM534 267V349Q532 431 517 490T466 591T372 665T228 726Q207 733 198 744T194 772Q200 789 215 791T248 788Q346 753 413 714T521 624T580 509T599 359V267H534ZM254 608Q242 613 239 622T242
645L334 821Q340 834 350 836T372 832Q385 825 388 815T385 794L294 618Q288 607 277 604T254 608Z" />
<glyph unicode="&#xf1;" horiz-adv-x="679" d="M557 0Q538 0 526 12T514 42V297Q514 358 492 396T430 454T341 474Q294 474 257 456T197 406T175 333H117Q119 396 150 445T235 524T353 553Q423 553 478 524T566 437T599 297V42Q599 24 587 12T557 0ZM133 0Q113
0 102 11T90 42V504Q90 524 101 535T133 547Q152 547 163 536T175 504V42Q175 23 164 12T133 0ZM445 625Q413 625 389 636T347 658Q325 671 312 676T285 681Q268 681 253 674T224 648Q214 634 200 629T170 632Q156 639 154 655T161 685Q185 717 218 734T288 752Q320
752 343 741T383 720Q404 708 416 703T444 697Q459 697 470 702T490 716Q502 728 514 732T541 728Q555 721 557 705T549 674Q510 625 445 625Z" />
<glyph unicode="&#xf2;" horiz-adv-x="676" d="M339 -5Q258 -5 196 31T97 130T61 273Q61 354 97 417T195 516T339 552Q419 552 481 516T579 417T616 273Q616 193 580 130T482 31T339 -5ZM339 71Q395 71 439 97T508 169T533 273Q533 331 508 377T439 449T339 476Q283
476 239 450T169 377T143 273Q143 215 168 170T238 98T339 71ZM337 635Q319 635 308 647L199 754Q189 767 189 784Q189 802 200 815T230 828Q248 828 261 815L368 706Q379 697 379 678Q379 660 367 648T337 635Z" />
<glyph unicode="&#xf3;" horiz-adv-x="676" d="M339 -5Q258 -5 196 31T97 130T61 273Q61 354 97 417T195 516T339 552Q419 552 481 516T579 417T616 273Q616 193 580 130T482 31T339 -5ZM339 71Q395 71 439 97T508 169T533 273Q533 331 508 377T439 449T339 476Q283
476 239 450T169 377T143 273Q143 215 168 170T238 98T339 71ZM335 631Q317 631 305 643T293 673Q293 691 302 702L411 810Q423 823 441 823Q459 823 471 811T483 779Q483 771 481 764T471 750L364 642Q353 631 335 631Z" />
<glyph unicode="&#xf4;" horiz-adv-x="676" d="M339 -5Q258 -5 196 31T97 130T61 273Q61 354 97 417T195 516T339 552Q419 552 481 516T579 417T616 273Q616 193 580 130T482 31T339 -5ZM339 71Q395 71 439 97T508 169T533 273Q533 331 508 377T439 449T339 476Q283
476 239 450T169 377T143 273Q143 215 168 170T238 98T339 71ZM225 628Q206 628 194 638T181 665Q181 688 202 702L318 779Q327 784 339 784Q346 784 351 783T361 779L476 702Q497 688 497 665Q497 649 485 639T454 628Q447 628 441 630T428 637L339 699L250 637Q238
628 225 628Z" />
<glyph unicode="&#xf5;" horiz-adv-x="676" d="M339 -5Q258 -5 196 31T97 130T61 273Q61 354 97 417T195 516T339 552Q419 552 481 516T579 417T616 273Q616 193 580 130T482 31T339 -5ZM339 71Q395 71 439 97T508 169T533 273Q533 331 508 377T439 449T339 476Q283
476 239 450T169 377T143 273Q143 215 168 170T238 98T339 71ZM445 625Q413 625 389 636T347 658Q325 671 312 676T285 681Q268 681 253 674T224 648Q214 634 200 629T170 632Q156 639 154 655T161 685Q185 717 218 734T288 752Q320 752 343 741T383 720Q404 708
416 703T444 697Q459 697 470 702T490 716Q502 728 514 732T541 728Q555 721 557 705T549 674Q510 625 445 625Z" />
<glyph unicode="&#xf6;" horiz-adv-x="676" d="M339 -5Q258 -5 196 31T97 130T61 273Q61 354 97 417T195 516T339 552Q419 552 481 516T579 417T616 273Q616 193 580 130T482 31T339 -5ZM339 71Q395 71 439 97T508 169T533 273Q533 331 508 377T439 449T339 476Q283
476 239 450T169 377T143 273Q143 215 168 170T238 98T339 71ZM232 642Q208 642 192 658T175 699Q175 721 191 738T232 755Q255 755 272 738T289 699Q289 674 272 658T232 642ZM445 642Q421 642 405 658T389 699Q389 721 405 738T445 755Q468 755 485 738T502 699Q502
674 485 658T445 642Z" />
<glyph unicode="&#xf7;" horiz-adv-x="469" d="M81 308Q63 308 51 320T38 351Q38 369 50 380T81 392H389Q407 392 419 381T432 351Q432 332 420 320T389 308H81ZM235 154Q213 154 198 169T182 206Q182 228 197 243T234 259Q257 259 271 244T286 206Q286 185 272
170T235 154ZM235 443Q213 443 198 458T182 495Q182 517 197 532T234 547Q257 547 271 532T286 495Q286 473 272 458T235 443Z" />
<glyph unicode="&#xf8;" horiz-adv-x="701" d="M93 -20Q72 -20 64 -2T71 32L144 106L179 131L502 454L526 479L588 540Q597 550 611 550Q626 550 633 541T641 519T633 498L567 432L544 411L219 89L193 68L115 -11Q105 -20 93 -20ZM357 -8Q276 -8 214 28T115 127T79
270Q79 351 115 414T213 513T356 549Q437 549 499 513T597 414T634 270Q634 190 598 127T500 28T357 -8ZM357 69Q413 69 457 95T526 166T551 270Q551 329 526 374T457 446T357 473Q300 473 256 447T187 375T161 270Q161 212 186 167T256 95T357 69Z" />
<glyph unicode="&#xf9;" horiz-adv-x="679" d="M326 -6Q255 -6 200 23T112 110T80 250V505Q80 523 92 535T122 547Q140 547 152 535T164 505V250Q164 189 187 151T249 93T337 73Q384 73 422 91T482 141T504 214H561Q559 151 528 102T444 23T326 -6ZM546 0Q527
0 516 11T504 43V505Q504 524 515 535T546 547Q565 547 577 536T589 505V43Q589 23 577 12T546 0ZM338 635Q320 635 309 647L200 754Q190 767 190 784Q190 802 201 815T231 828Q249 828 262 815L369 706Q380 697 380 678Q380 660 368 648T338 635Z" />
<glyph unicode="&#xfa;" horiz-adv-x="679" d="M326 -6Q255 -6 200 23T112 110T80 250V505Q80 523 92 535T122 547Q140 547 152 535T164 505V250Q164 189 187 151T249 93T337 73Q384 73 422 91T482 141T504 214H561Q559 151 528 102T444 23T326 -6ZM546 0Q527
0 516 11T504 43V505Q504 524 515 535T546 547Q565 547 577 536T589 505V43Q589 23 577 12T546 0ZM336 631Q318 631 306 643T294 673Q294 691 303 702L412 810Q424 823 442 823Q460 823 472 811T484 779Q484 771 482 764T472 750L365 642Q354 631 336 631Z" />
<glyph unicode="&#xfb;" horiz-adv-x="679" d="M326 -6Q255 -6 200 23T112 110T80 250V505Q80 523 92 535T122 547Q140 547 152 535T164 505V250Q164 189 187 151T249 93T337 73Q384 73 422 91T482 141T504 214H561Q559 151 528 102T444 23T326 -6ZM546 0Q527
0 516 11T504 43V505Q504 524 515 535T546 547Q565 547 577 536T589 505V43Q589 23 577 12T546 0ZM226 628Q207 628 195 638T182 665Q182 688 203 702L319 779Q328 784 340 784Q347 784 352 783T362 779L477 702Q498 688 498 665Q498 649 486 639T455 628Q448 628
442 630T429 637L340 699L251 637Q239 628 226 628Z" />
<glyph unicode="&#xfc;" horiz-adv-x="679" d="M326 -6Q255 -6 200 23T112 110T80 250V505Q80 523 92 535T122 547Q140 547 152 535T164 505V250Q164 189 187 151T249 93T337 73Q384 73 422 91T482 141T504 214H561Q559 151 528 102T444 23T326 -6ZM546 0Q527
0 516 11T504 43V505Q504 524 515 535T546 547Q565 547 577 536T589 505V43Q589 23 577 12T546 0ZM233 642Q209 642 193 658T176 699Q176 721 192 738T233 755Q256 755 273 738T290 699Q290 674 273 658T233 642ZM446 642Q422 642 406 658T390 699Q390 721 406
738T446 755Q469 755 486 738T503 699Q503 674 486 658T446 642Z" />
<glyph unicode="&#xfd;" horiz-adv-x="545" d="M185 -239Q177 -239 165 -234Q128 -217 145 -181L462 524Q479 559 515 543Q552 528 536 491L217 -213Q207 -239 185 -239ZM298 19Q282 11 268 16T245 38L21 491Q13 508 18 522T40 544Q57 551 71 546T93 525L312 71Q320
55 318 41T298 19ZM274 631Q256 631 244 643T232 673Q232 691 241 702L350 810Q362 823 380 823Q398 823 410 811T422 779Q422 771 420 764T410 750L303 642Q292 631 274 631Z" />
<glyph unicode="&#xfe;" horiz-adv-x="705" d="M133 -234Q113 -234 102 -223T90 -191V738Q90 758 101 769T133 781Q152 781 163 770T175 738L168 302L137 291Q137 357 158 406T214 487T292 536T379 552Q455 552 515 517T609 418T644 273Q644 192 611 129T517 31T379
-5Q311 -5 258 26T175 112V-191Q175 -211 164 -222T133 -234ZM366 71Q424 71 468 97T537 168T562 273Q562 332 537 378T468 450T366 476Q310 476 266 450T198 378T173 273Q173 214 197 169T266 97T366 71Z" />
<glyph unicode="&#xff;" horiz-adv-x="545" d="M185 -239Q177 -239 165 -234Q128 -217 145 -181L462 524Q479 559 515 543Q552 528 536 491L217 -213Q207 -239 185 -239ZM298 19Q282 11 268 16T245 38L21 491Q13 508 18 522T40 544Q57 551 71 546T93 525L312 71Q320
55 318 41T298 19ZM172 642Q148 642 132 658T115 699Q115 721 131 738T172 755Q195 755 212 738T229 699Q229 674 212 658T172 642ZM385 642Q361 642 345 658T329 699Q329 721 345 738T385 755Q408 755 425 738T442 699Q442 674 425 658T385 642Z" />
<glyph unicode="&#x2013;" horiz-adv-x="391" d="M-3 231Q-22 231 -34 243T-46 273Q-46 292 -34 304T-3 316H393Q411 316 423 304T436 273Q436 255 424 243T393 231H-3Z" />
<glyph unicode="&#x2014;" horiz-adv-x="938" d="M-6 231Q-24 231 -36 243T-48 273Q-48 292 -36 304T-6 316H945Q964 316 976 304T988 273Q988 255 976 243T945 231H-6Z" />
<glyph unicode="&#x2018;" horiz-adv-x="207" d="M156 822Q170 822 178 810T180 783Q164 747 161 722T160 679T166 645T170 608Q170 583 155 568T116 553Q89 553 74 575T58 636Q58 660 68 691T93 752T125 802T156 822Z" />
<glyph unicode="&#x2019;" horiz-adv-x="173" d="M26 522Q13 522 5 534T2 561Q18 598 21 622T22 665T15 699T11 736Q11 761 27 776T66 791Q92 791 108 769T124 708Q124 684 114 653T89 592T58 542T26 522Z" />
<glyph unicode="&#x201a;" horiz-adv-x="234" d="M78 -172Q65 -172 57 -160T54 -133Q70 -96 73 -72T74 -29T67 5T63 42Q63 67 79 82T118 97Q144 97 160 75T176 14Q176 -10 166 -41T141 -102T110 -152T78 -172Z" />
<glyph unicode="&#x201c;" horiz-adv-x="284" d="M110 822Q124 822 132 810T134 783Q118 747 115 722T114 679T121 645T125 608Q125 583 109 568T71 553Q43 553 28 575T12 636Q12 660 22 691T47 752T78 802T110 822ZM258 822Q272 822 280 810T282 783Q266 747
263 722T262 679T268 645T273 608Q273 583 257 568T218 553Q191 553 176 575T160 636Q160 660 170 691T195 752T227 802T258 822Z" />
<glyph unicode="&#x201d;" horiz-adv-x="282" d="M211 553Q189 553 173 568T157 608Q157 628 161 644T168 679T167 722T148 783Q142 798 150 810T172 822Q187 822 204 803T235 753T259 691T269 636Q269 598 254 576T211 553ZM65 553Q43 553 27 568T11 608Q11 628
15 644T22 679T22 722T2 783Q-4 798 4 810T26 822Q41 822 57 803T89 753T113 691T123 636Q123 598 108 576T65 553Z" />
<glyph unicode="&#x201e;" horiz-adv-x="293" d="M313 -172Q300 -172 292 -160T289 -133Q305 -96 308 -72T309 -29T302 5T298 42Q298 67 314 82T353 97Q379 97 395 75T411 14Q411 -10 401 -41T376 -102T345 -152T313 -172ZM195 -172Q182 -172 174 -160T171 -133Q187
-96 190 -72T191 -29T184 5T180 42Q180 67 196 82T235 97Q261 97 277 75T293 14Q293 -10 283 -41T258 -102T227 -152T195 -172Z" />
<glyph unicode="&#x2022;" horiz-adv-x="391" d="M196 270Q163 270 136 286T92 329T76 389Q76 422 92 449T136 492T196 509Q228 509 255 492T298 448T315 389Q315 357 300 330T257 287T196 270Z" />
<glyph unicode="&#x2039;" horiz-adv-x="273" d="M196 0Q184 0 174 6T157 26L45 250Q42 257 40 262T38 273Q38 283 44 294L157 520Q170 546 196 546Q215 546 227 534T239 504Q239 493 236 486L129 273L236 60Q239 54 239 43Q239 24 227 12T196 0Z" />
<glyph unicode="&#x203a;" horiz-adv-x="273" d="M81 0Q64 0 52 12T39 43Q39 53 43 60L148 273L43 486Q42 490 40 494T38 504Q38 522 51 534T81 546Q108 546 120 520L234 294Q236 288 237 283T239 273Q239 262 233 250L120 26Q114 13 104 7T81 0Z" />
</font>
</defs>
</svg>
